<?xml version="1.0" standalone="no"?>
<!DOCTYPE svg PUBLIC "-//W3C//DTD SVG 1.1//EN" "http://www.w3.org/Graphics/SVG/1.1/DTD/svg11.dtd" >
<svg>
<metadata>
Created by FontForge 20090914 at Sat Jan  7 07:42:29 2017
 By www-data
Copyright SoftMaker Software GmbH 1995
</metadata>
<defs>
<font id="Orator-Regular" horiz-adv-x="620" >
  <font-face 
    font-family="Orator"
    font-weight="400"
    font-stretch="normal"
    units-per-em="1000"
    panose-1="0 0 0 0 0 0 0 0 0 0"
    ascent="800"
    descent="-200"
    x-height="543"
    cap-height="695"
    bbox="-2 -301 657 876.003"
    underline-thickness="40"
    underline-position="-130"
    unicode-range="U+0020-U+F002"
  />
<missing-glyph horiz-adv-x="700" 
d="M43 0v700h614v-700h-614zM614 43v614h-528v-614h528z" />
    <glyph glyph-name=".notdef" horiz-adv-x="700" 
d="M43 0v700h614v-700h-614zM614 43v614h-528v-614h528z" />
    <glyph glyph-name="space" unicode=" " 
 />
    <glyph glyph-name="exclam" unicode="!" 
d="M275 214l-19 481h108l-21 -481h-68zM261 155h98v-156h-98v156z" />
    <glyph glyph-name="quotedbl" unicode="&#x22;" 
d="M278 704l-1 -117c0 -13.333 -3.66699 -36.333 -11 -69c-10 -45.333 -15.333 -69.333 -16 -72h-42l-17 71c-7.33301 32 -11 55.333 -11 70v117h98zM441 704l-1 -117c0 -14 -3.33301 -35 -10 -63l-18 -78h-41l-17 71c-7.33301 32 -11 55.333 -11 70v117h98z" />
    <glyph glyph-name="numbersign" unicode="#" 
d="M323 838l-169 -939h-48l63 349h-139l9 47h138l29 162h-139l9 47h139l60 334h48zM292 -101l172 939h47l-60 -334h140l-10 -47h-139l-28 -162h139l-9 -47h-139l-64 -349h-49z" />
    <glyph glyph-name="dollar" unicode="$" 
d="M344 144c22 0 41.333 8.00195 58 24.002s25 35.333 25 58c0 21.333 -8.33301 39.666 -25 54.999s-36 24.666 -58 27.999v-165zM271 550.002c-16.667 -4.66699 -30.167 -13.833 -40.5 -27.5s-15.5 -29.5 -15.5 -47.5c0 -17.333 5 -32 15 -44s23.667 -21.667 41 -29v148z
M271 330.003c-38.667 10 -69.667 26.998 -93 50.998c-25.333 26 -38 58 -38 96c0 36 13 67 39 93c23.333 23.333 54 39.333 92 48v86h74v-86c28.667 -3.33301 56 -13.666 82 -30.999c22.667 -14.667 44 -35 64 -61l-52 -46c-18 20.667 -31.667 35 -41 43
c-16.667 14 -34.334 23 -53.001 27v-168c44.667 -6.66699 81.334 -23 110.001 -49c32 -29.333 48 -65.666 48 -108.999c0 -41.333 -16 -76.333 -48 -105s-68.667 -43 -110 -43v-86h-74v86c-30 0 -59.333 11 -88 33c-22.667 17.333 -44 41 -64 71l59 43
c15.333 -23.333 28 -40 38 -50c16.667 -16 35 -25.667 55 -29v186z" />
    <glyph glyph-name="percent" unicode="%" 
d="M393 -10c-36 0 -63.501 13.334 -82.501 40.001s-28.5 58.667 -28.5 96c0 34.667 10.5 64.167 31.5 88.5s48.833 36.5 83.5 36.5c36.667 0 65.334 -13.667 86.001 -41c18.667 -24.667 28 -56 28 -94c0 -36.667 -10.5 -66.834 -31.5 -90.501s-49.833 -35.5 -86.5 -35.5z
M395.999 197.001c-19.333 0 -32.501 -7.83203 -39.501 -23.499s-10.5 -34.834 -10.5 -57.501c0 -19.333 3.83301 -36.333 11.5 -51s20.834 -22 39.501 -22c17.333 0 30.333 8.66699 39 26c6.66699 14 10 31 10 51c0 28 -4.66699 47.833 -14 59.5s-21.333 17.5 -36 17.5z
M535.998 680.002l-390.003 -692.999l-64 35l341 601c-17.333 -5.33301 -33.666 -8 -48.999 -8c-12 0 -22.333 1 -31 3c-8 3.33301 -14 5.33301 -18 6c6 -17.333 9 -35 9 -53c0 -36 -9.66699 -66.333 -29 -91c-21.333 -27.333 -49.666 -41 -84.999 -41
c-37.333 0 -65.833 13 -85.5 39s-29.5 58.667 -29.5 98c0 35.333 10.333 65.166 31 89.499s48.334 36.5 83.001 36.5c20 0 49.167 -5.5 87.5 -16.5s66.5 -16.5 84.5 -16.5c37.333 0 73 10.667 107 32zM219.995 648.003c-20 0 -33.499 -7.83105 -40.499 -23.498
s-10.5 -34.834 -10.5 -57.501c0 -18.667 4.16699 -35.667 12.5 -51s21.5 -23 39.5 -23c17.333 0 29.666 8.16699 36.999 24.5s11 34.166 11 53.499c0 20.667 -3 37.667 -9 51c-8 17.333 -21.333 26 -40 26z" />
    <glyph glyph-name="ampersand" unicode="&#x26;" 
d="M256 244c-21.333 -14 -36.333 -26.667 -45 -38c-12 -15.333 -18 -34.333 -18 -57c0 -28 8.66699 -50.333 26 -67s40 -25 68 -25c15.333 0 29.833 2.83301 43.5 8.5s26.5 14.167 38.5 25.5zM357 440c0 23.333 -6.5 42.167 -19.5 56.5s-31.167 21.5 -54.5 21.5
c-21.333 0 -37.5 -7 -48.5 -21s-16.5 -32 -16.5 -54c0 -15.333 3 -29.666 9 -42.999s21.333 -35.666 46 -66.999c30 21.333 48.667 35.666 56 42.999c18.667 19.333 28 40.666 28 63.999zM149 447.001c0 40 12.834 73.1689 38.501 99.502s58.167 39.5 97.5 39.5
s72.166 -13.833 98.499 -41.5s39.5 -61.5 39.5 -101.5c0 -35.333 -11.333 -67 -34 -95c-16 -19.333 -42.333 -41.666 -79 -66.999l101 -136c8.66699 14 15 29 19 45s7.33301 34.667 10 56l70 -14c-6 -53.333 -24.333 -103 -55 -149l43 -59l-54 -40l-37 51
c-19.333 -14.667 -39.333 -25.834 -60 -33.501s-42.334 -11.5 -65.001 -11.5c-45.333 0 -84.166 15.167 -116.499 45.5s-48.5 68.166 -48.5 113.499c0 31.333 9.66699 59.666 29 84.999c14.667 18.667 37.667 39 69 61c-22 28 -37.667 51.333 -47 70
c-12.667 26 -19 53.333 -19 82z" />
    <glyph glyph-name="quotesingle" unicode="'" 
d="M359 704l-1 -117c0 -13.333 -3.66699 -36.333 -11 -69c-10 -45.333 -15.333 -69.333 -16 -72h-42l-17 71c-7.33301 32 -11 55.333 -11 70v117h98z" />
    <glyph glyph-name="parenleft" unicode="(" 
d="M417 662c-44 -42.667 -76.5 -93.999 -97.5 -153.999s-31.5 -123.667 -31.5 -191c0 -70 9.33301 -132 28 -186c21.333 -61.333 55 -114.333 101 -159l-43 -43c-52.667 43.333 -92.5 100.166 -119.5 170.499s-40.5 142.833 -40.5 217.5c0 76.667 13.167 148.667 39.5 216
s66.5 124.333 120.5 171z" />
    <glyph glyph-name="parenright" unicode=")" 
d="M246 704c52 -43.333 92.333 -101.666 121 -174.999c26 -66.667 39 -137 39 -211c0 -74.667 -13 -145.334 -39 -212.001c-28 -72 -68.333 -131 -121 -177l-43 43c44 42.667 77 95.667 99 159c19.333 56.667 29 118.667 29 186s-9.66699 129.333 -29 186
c-22 64.667 -55 117.667 -99 159z" />
    <glyph glyph-name="asterisk" unicode="*" 
d="M248 577l-64 76l72 52l54 -98l54 98l72 -52l-64 -76l102 11v-94l-102 9l64 -75l-72 -52l-54 98l-54 -98l-72 52l64 75l-102 -9v94zM282 541c0 -18.667 9.33301 -28 28 -28c8 0 14.667 2.66699 20 8s8 12 8 20s-2.66699 14.667 -8 20s-12 8 -20 8s-14.667 -2.66699 -20 -8
s-8 -12 -8 -20z" />
    <glyph glyph-name="plus" unicode="+" 
d="M587 350h-253v-253h-48v253h-253v48h253v254h48v-254h253v-48z" />
    <glyph glyph-name="comma" unicode="," 
d="M370 155l0.000976562 -48c0 -34.667 -11.667 -68 -35 -100c-20.667 -28.667 -48 -52 -82 -70l-24 59c17.333 11.333 29.666 28 36.999 50c5.33301 16.667 8 38 8 64c0 7.33301 -0.166992 14.833 -0.5 22.5s-0.5 15.167 -0.5 22.5h97z" />
    <glyph glyph-name="hyphen" unicode="-" 
d="M194 305h232v-68h-232v68z" />
    <glyph glyph-name="period" unicode="." 
d="M261 155h98v-156h-98v156z" />
    <glyph glyph-name="slash" unicode="/" 
d="M131 -29l308 807h50l-308 -807h-50z" />
    <glyph glyph-name="zero" unicode="0" 
d="M505 311c0 -96.667 -9.33398 -167.667 -28.001 -213c-30 -72.667 -86 -109 -168 -109c-60 0 -105.667 19 -137 57c-37.333 45.333 -56 125.333 -56 240l1 98c0 68 2.33301 117 7 147c8 53.333 25 94 51 122c30.667 34 75.667 51 135 51c64 0 112 -23 144 -69
c24.667 -36 40.334 -88 47.001 -156c2.66699 -28 4 -84 4 -168zM190.999 309c0 -77.333 4 -130.666 12 -159.999c16.667 -61.333 52 -92 106 -92c50 0 84.333 28 103 84c12 36 18 90 18 162c0 9.33301 -0.166992 18.666 -0.5 27.999s-0.5 18.333 -0.5 27v46
c0 68.667 -5.66699 119.667 -17 153c-18 53.333 -51.667 80 -101 80c-50.667 0 -85 -25 -103 -75c-11.333 -31.333 -17 -78 -17 -140v-113z" />
    <glyph glyph-name="one" unicode="1" 
d="M287 608l-126 -49l-22 66l220 84v-646h148v-64h-394v64h174v545z" />
    <glyph glyph-name="two" unicode="2" 
d="M116 63l102.998 123c57.333 69.333 104 131 140 185c47.333 70.667 71 121.667 71 153c0 34 -9.83301 61.167 -29.5 81.5s-46.167 30.5 -79.5 30.5c-39.333 0 -70.166 -13 -92.499 -39s-36.166 -59.333 -41.499 -100l-70 10c9.33301 61.333 29.666 108.333 60.999 141
c35.333 37.333 83 56 143 56c54.667 0 99 -16 133 -48s51 -75.333 51 -130c0 -40 -21.333 -94 -64 -162c-31.333 -50 -74.666 -108.667 -129.999 -176l-104 -125h297v-64h-388v64z" />
    <glyph glyph-name="three" unicode="3" 
d="M197 421l203.002 208.999h-287v65h386v-64l-190 -195c57.333 0 104.5 -16.333 141.5 -49s55.5 -77.667 55.5 -135c0 -93.333 -43.333 -162.666 -130 -207.999c-68.667 -36 -153.334 -54 -254.001 -54v67c110 0 191.667 20.667 245 62c43.333 33.333 65 79 65 137
c0 36.667 -13.667 65.167 -41 85.5s-60.333 30.5 -99 30.5c-19.333 0 -33.833 -0.5 -43.5 -1.5s-26.834 -3.5 -51.501 -7.5v58z" />
    <glyph glyph-name="four" unicode="4" 
d="M112 173l103 535l71 -19l-89 -452h186v353h71v-353h55v-64h-55v-174h-71v174h-271z" />
    <glyph glyph-name="five" unicode="5" 
d="M140 695l356.999 -0.00195312v-65h-286l1 -211c22 7.33301 38.333 12.333 49 15c18.667 4.66699 36 7 52 7c54.667 0 99.834 -17.167 135.501 -51.5s53.5 -79.166 53.5 -134.499c0 -98.667 -42 -170 -126 -214c-64.667 -34 -150.667 -51 -258 -51v67
c90 0 158.333 10.333 205 31c70 31.333 105 87.333 105 168c0 36.667 -11 65.334 -33 86.001s-51.333 31 -88 31c-20 0 -39.167 -3 -57.5 -9s-37.833 -15 -58.5 -27h-51v358z" />
    <glyph glyph-name="six" unicode="6" 
d="M437 584c-19.333 16.667 -36.3311 28.6699 -50.998 36.0029c-20 10.667 -40.333 16 -61 16c-54.667 0 -92.667 -30 -114 -90c-13.333 -38 -20 -91 -20 -159c20 16.667 41.667 30 65 40s46.666 15 69.999 15c61.333 0 107.666 -22.667 138.999 -68
c27.333 -39.333 41 -91 41 -155c0 -65.333 -16.667 -119 -50 -161c-36.667 -46 -86.667 -69 -150 -69c-56.667 0 -100.334 21 -131.001 63c-24.667 34 -41.667 82 -51 144c-6 41.333 -9 92.666 -9 153.999s4 112.666 12 153.999c11.333 59.333 31 105.666 59 138.999
c34 40.667 79.333 61 136 61c28.667 0 56.334 -5.33301 83.001 -16s50.667 -25.667 72 -45zM311.002 56.0029c40 0 71 17 93 51c18.667 29.333 28 65 28 107c0 45.333 -7.66699 81.333 -23 108c-19.333 34 -50 51 -92 51c-18 0 -36.833 -4.5 -56.5 -13.5
s-43.167 -26.833 -70.5 -53.5c0 -70 5 -122 15 -156c18.667 -62.667 54 -94 106 -94z" />
    <glyph glyph-name="seven" unicode="7" 
d="M432 630h-285v65h388l-315 -710l-64 29z" />
    <glyph glyph-name="eight" unicode="8" 
d="M186 174c0 -36 11.501 -64.5 34.501 -85.5s52.833 -31.5 89.5 -31.5s66.5 11.167 89.5 33.5s34.5 51.833 34.5 88.5c0 32.667 -13.667 61.667 -41 87c-10.667 9.33301 -38.334 28 -83.001 56c-48 -30 -76.333 -49 -85 -57c-26 -24 -39 -54.333 -39 -91zM412.001 530
c0 30 -9.49902 55.167 -28.499 75.5s-43.5 30.5 -73.5 30.5c-30.667 0 -55.167 -10.5 -73.5 -31.5s-27.5 -47.167 -27.5 -78.5c0 -34.667 15.667 -65 47 -91c7.33301 -6 25.333 -19 54 -39c29.333 20 47.666 33 54.999 39c31.333 26 47 57.667 47 95zM509.002 177
c0 -55.333 -19.167 -100.5 -57.5 -135.5s-85.5 -52.5 -141.5 -52.5s-103.167 17.333 -141.5 52s-57.5 79.667 -57.5 135c0 44 13 81.333 39 112c21.333 24.667 54.333 48.334 99 71.001c-37.333 24 -64.333 46.667 -81 68c-22.667 28.667 -34 62 -34 100
c0 50 16.667 92 50 126s75.333 51 126 51c50 0 92 -17 126 -51s51 -76.333 51 -127c0 -36.667 -11.333 -69.334 -34 -98.001c-17.333 -22.667 -44.333 -45.667 -81 -69c44 -22 76.667 -45.333 98 -70c26 -30.667 39 -68 39 -112z" />
    <glyph glyph-name="nine" unicode="9" 
d="M183 110c18.667 -16 37 -28.835 55 -38.502s37.333 -14.5 58 -14.5c53.333 0 91 30.333 113 91c14 39.333 21 92.333 21 159c-20 -17.333 -41.5 -31 -64.5 -41s-46.5 -15 -70.5 -15c-62 0 -108.333 22.667 -139 68c-26.667 39.333 -40 91.333 -40 156
c0 66 16.333 119.667 49 161c35.333 45.333 85.333 68 150 68c54.667 0 97.667 -20.333 129 -61c24 -32 41 -78.333 51 -139c6.66699 -41.333 10 -91 10 -149c0 -63.333 -3.66699 -115.666 -11 -156.999c-11.333 -63.333 -30.333 -111.666 -57 -144.999
c-33.333 -42 -79.666 -63 -138.999 -63c-28.667 0 -56.334 5.33301 -83.001 16s-50.667 25.667 -72 45zM310 634.998c-42 0 -73.332 -16.667 -93.999 -50c-18 -28.667 -27 -65 -27 -109c0 -46.667 7.33301 -82.667 22 -108c19.333 -33.333 50.666 -50 93.999 -50
c22 0 44.667 7 68 21c16.667 10 36 25 58 45c0 70 -5 122.333 -15 157c-18 62.667 -53.333 94 -106 94z" />
    <glyph glyph-name="colon" unicode=":" 
d="M261 155h98v-156h-98v156zM261 450h98v-156h-98v156z" />
    <glyph glyph-name="semicolon" unicode=";" 
d="M370 155l0.000976562 -48c0 -34.667 -11.667 -68 -35 -100c-20.667 -28.667 -48 -52 -82 -70l-24 59c17.333 11.333 29.666 28 36.999 50c5.33301 16.667 8 38 8 64c0 7.33301 -0.166992 14.833 -0.5 22.5s-0.5 15.167 -0.5 22.5h97zM273.001 450h97v-156h-97v156z" />
    <glyph glyph-name="less" unicode="&#x3c;" 
d="M494 750l27 -35l-353 -341l353 -341l-27 -35l-395 376z" />
    <glyph glyph-name="equal" unicode="=" 
d="M587 420h-554v48h554v-48zM587 281h-554v48h554v-48z" />
    <glyph glyph-name="greater" unicode="&#x3e;" 
d="M521 374l-395 -376l-27 35l353 341l-353 341l27 35z" />
    <glyph glyph-name="question" unicode="?" 
d="M270 228l0.00292969 18c0 60.667 25.833 112.5 77.5 155.5s77.5 84.167 77.5 123.5c0 32 -9.33301 58.667 -28 80s-43.667 32 -75 32c-38.667 0 -69.334 -15 -92.001 -45c-18 -23.333 -31 -56.333 -39 -99l-71 17c12.667 62 33 108.333 61 139
c33.333 36.667 79.666 55 138.999 55c53.333 0 96.666 -16 129.999 -48s50 -75 50 -129c0 -46.667 -35.333 -106.667 -106 -180c-34 -35.333 -51 -75 -51 -119h-73zM257.003 155h98v-156h-98v156z" />
    <glyph glyph-name="at" unicode="@" 
d="M546 70c-38 -25.333 -78.833 -45.0029 -122.5 -59.0029s-88.167 -21 -133.5 -21c-85.333 0 -152.666 29 -201.999 87c-46.667 54.667 -70 125.334 -70 212.001c0 105.333 26 198 78 278c59.333 91.333 139.333 137 240 137c78 0 142 -28.5 192 -85.5
s75 -125.167 75 -204.5c0 -57.333 -12 -108.666 -36 -153.999c-29.333 -56 -70.333 -84 -123 -84c-18.667 0 -33.834 3.16699 -45.501 9.5s-25.167 17.166 -40.5 32.499c-16.667 -14.667 -31.834 -25.334 -45.501 -32.001s-30.5 -10 -50.5 -10c-27.333 0 -50 8.66699 -68 26
s-27 40.333 -27 69c0 83.333 24 143.333 72 180c42 32 104.667 48 188 48l18 -1c-10.667 -47.333 -18 -82.666 -22 -105.999c-8 -41.333 -12 -77.333 -12 -108c0 -12 2.83301 -21.833 8.5 -29.5s14.167 -11.5 25.5 -11.5c30 0 52.333 22.333 67 67c10.667 32 16 67 16 105
c0 62.667 -17 114.334 -51 155.001c-36.667 44 -85.667 66 -147 66c-78.667 0 -140 -40.333 -184 -121c-36 -66 -54 -142 -54 -228c0 -70 17.5 -125.667 52.5 -167s86.833 -62 155.5 -62c36.667 0 75.334 8 116.001 24c32 12.667 66.667 31.334 104 56.001zM362 430.997
c-8 0 -16.667 -1.16602 -26 -3.49902s-18.333 -5.5 -27 -9.5c-16.667 -6.66699 -32 -26.5 -46 -59.5s-21 -60.5 -21 -82.5c0 -8.66699 2.16699 -16.167 6.5 -22.5s10.5 -9.5 18.5 -9.5c34 0 60 35 78 105c2 7.33301 7.66699 34.666 17 81.999z" />
    <glyph glyph-name="A" unicode="A" 
d="M216 213l-54 -228l-70 19l176 691h84l176 -691l-71 -19l-54 228h-187zM311 597l-77 -319h152z" />
    <glyph glyph-name="B" unicode="B" 
d="M345 63c38 0 65.667 15.667 83 47c14 25.333 21 58.333 21 99c0 43.333 -9.66699 76.833 -29 100.5s-50.333 35.5 -93 35.5h-75v-282h93zM314 411c35.333 0 61.333 9.33301 78 28s25 45.667 25 81c0 42 -10.167 71 -30.5 87s-51.833 24 -94.5 24h-39v-220h61zM126 0
l-0.000976562 64.001h56v567h-56v65h212c46.667 0 84.334 -17.5 113.001 -52.5s43 -76.5 43 -124.5c0 -29.333 -5.83301 -55.333 -17.5 -78s-30.167 -41 -55.5 -55c36 -16.667 62.5 -40.167 79.5 -70.5s25.5 -65.833 25.5 -106.5c0 -60.667 -13.667 -109.334 -41 -146.001
c-31.333 -42 -76.333 -63 -135 -63h-224z" />
    <glyph glyph-name="C" unicode="C" 
d="M505 104c-20 -34 -45.666 -61.498 -76.999 -82.498s-66 -31.5 -104 -31.5c-56.667 0 -101.667 20.333 -135 61c-26.667 32.667 -46.334 79.667 -59.001 141c-9.33301 46 -14 97.333 -14 154c0 59.333 4.33301 110.666 13 153.999c12 61.333 31.667 108.666 59 141.999
c34 41.333 79.333 62 136 62c37.333 0 71 -10.667 101 -32c26 -18.667 49.333 -46 70 -82l-61 -36c-10 22.667 -24.833 42 -44.5 58s-41.167 24 -64.5 24c-55.333 0 -93.666 -37 -114.999 -111c-13.333 -46 -20 -105.667 -20 -179c0 -74.667 6.33301 -134 19 -178
c21.333 -74 59.666 -111 114.999 -111c25.333 0 49.333 9.33301 72 28c18 14.667 34.667 34.667 50 60z" />
    <glyph glyph-name="D" unicode="D" 
d="M121 630l-0.000976562 65h184c66 0 116.667 -18.667 152 -56c29.333 -30.667 49 -75.667 59 -135c6.66699 -38.667 10 -94 10 -166c0 -134 -19.667 -225.333 -59 -274c-35.333 -43.333 -88.666 -65 -159.999 -65h-186v64h56v567h-56zM248.999 63l54.999 1
c68.667 0 113 34.333 133 103c10 34 15 97 15 189c0 76.667 -5.33301 133.667 -16 171c-19.333 68.667 -57.666 103 -114.999 103h-72v-567z" />
    <glyph glyph-name="E" unicode="E" 
d="M161 695h339v-65h-268v-226h221v-65h-221v-276h268v-64h-339v696z" />
    <glyph glyph-name="F" unicode="F" 
d="M180 695h342v-65h-270v-226h227v-65h-227v-340h-72v696z" />
    <glyph glyph-name="G" unicode="G" 
d="M493 50c-23.333 -18 -48.8311 -32.502 -76.498 -43.502s-55.834 -16.5 -84.501 -16.5c-56 0 -101.333 21 -136 63c-27.333 33.333 -47.333 81 -60 143c-10 48.667 -15 100.667 -15 156c0 120.667 21 212.334 63 275.001c34 51.333 81 77 141 77
c37.333 0 71.333 -10.667 102 -32c26.667 -18.667 50.667 -45.667 72 -81l-63 -39c-14 24.667 -29.667 44.334 -47 59.001c-20.667 17.333 -43.334 26 -68.001 26c-50.667 0 -86.334 -40 -107.001 -120c-12.667 -49.333 -19 -110.333 -19 -183
c0 -73.333 6.66699 -131 20 -173c22 -69.333 61.333 -104 118 -104c34.667 0 64.334 10.667 89.001 32v207h-130v65h201v-311z" />
    <glyph glyph-name="H" unicode="H" 
d="M133 695h71v-291h212v291h71v-696h-71v340h-212v-340h-71v696z" />
    <glyph glyph-name="I" unicode="I" 
d="M274 630h-94v65h260v-65h-95v-567h95v-64h-260v64h94v567z" />
    <glyph glyph-name="J" unicode="J" 
d="M182 253l0.00195312 -34.999c0 -62.667 9.33301 -106 28 -130c16 -20.667 41 -31 75 -31c33.333 0 58.666 14.667 75.999 44c14.667 24.667 22 54.667 22 90v504h71v-510c0 -58 -15.833 -105.167 -47.5 -141.5s-75.834 -54.5 -132.501 -54.5
c-66.667 0 -112.667 29.667 -138 89c-16.667 39.333 -25 97.666 -25 174.999h71z" />
    <glyph glyph-name="K" unicode="K" 
d="M237 409h17l194 300l57 -37l-190 -293l228 -357l-60 -37l-223 359h-23v-345h-71v696h71v-286z" />
    <glyph glyph-name="L" unicode="L" 
d="M173 695h72v-632h284v-64h-356v696z" />
    <glyph glyph-name="M" unicode="M" 
d="M409 695h89l20 -696h-75l-14 573l-119 -345l-117 345l-16 -573h-74l20 696h88l99 -292z" />
    <glyph glyph-name="N" unicode="N" 
d="M129 695h88l205 -583l-2 155v428h71v-696h-88l-205 584l2 -158v-426h-71v696z" />
    <glyph glyph-name="O" unicode="O" 
d="M503 337c0 -94 -10.001 -167.998 -30.001 -221.998c-31.333 -84 -85.666 -126 -162.999 -126c-57.333 0 -101.666 21 -132.999 63c-24.667 33.333 -41.667 81.666 -51 144.999c-6 41.333 -9 94 -9 158c0 94 10 168.333 30 223c30.667 84 85 126 163 126
c56.667 0 100.667 -21.667 132 -65c25.333 -34.667 42.666 -83.667 51.999 -147c6 -40.667 9 -92.334 9 -155.001zM309.999 57.002c49.333 0 83.334 31.001 102.001 93.001c11.333 38 17 89.333 17 154v33.5c0 11.667 0.333008 24.167 1 37.5
c0 75.333 -6 132.666 -18 171.999c-18.667 60 -52.334 90 -101.001 90c-50 0 -84.667 -34 -104 -102c-11.333 -40 -17 -94.333 -17 -163v-43c0 -76 5.66699 -134 17 -174c18.667 -65.333 53 -98 103 -98z" />
    <glyph glyph-name="P" unicode="P" 
d="M237 -1h-71.001v696h151c60.667 0 107.834 -15.833 141.501 -47.5s50.5 -77.5 50.5 -137.5c0 -88 -25.333 -146 -76 -174c-34 -18.667 -99.333 -28 -196 -28v-309zM236.999 372h42c55.333 0 93 6.66699 113 20c28 18.667 42 58 42 118c0 80 -39.333 120 -118 120h-79
v-258z" />
    <glyph glyph-name="Q" unicode="Q" 
d="M502 24l-54 -44.9971l-41 49c-28 -26 -60.333 -39 -97 -39c-50.667 0 -91.667 21.667 -123 65c-25.333 34.667 -44 83 -56 145c-9.33301 47.333 -14 96.666 -14 147.999c0 88.667 11.333 163.667 34 225c32.667 88.667 86 133 160 133s127 -46 159 -138
c22 -63.333 33 -141 33 -233c0 -50.667 -3 -93.334 -9 -128.001c-8 -46.667 -22.333 -87.334 -43 -122.001zM275 184.003l55 46l72 -85c18 57.333 27 116 27 176c0 82 -4.66699 144.667 -14 188c-18.667 84.667 -54 127 -106 127c-50 0 -84 -41 -102 -123
c-10 -44.667 -15 -106 -15 -184c0 -62 6 -116 18 -162c19.333 -73.333 51 -110 95 -110c24 0 43.333 7.33301 58 22z" />
    <glyph glyph-name="R" unicode="R" 
d="M237 372h100.999c34.667 0 60.334 15 77.001 45c13.333 24 20 54.667 20 92c0 40 -9 70.167 -27 90.5s-47 30.5 -87 30.5h-84v-258zM165.999 695h187.002c47.333 0 85.666 -19.333 114.999 -58c27.333 -36 41 -78.333 41 -127c0 -46 -9 -85.667 -27 -119
c-20.667 -38 -51.334 -64 -92.001 -78l143 -297l-64 -31l-156 323h-76v-309h-71v696z" />
    <glyph glyph-name="S" unicode="S" 
d="M409 534c-7.33301 29.333 -17.333 52.335 -30 69.002c-16.667 22 -38 33 -64 33c-31.333 0 -55 -12 -71 -36c-13.333 -20 -20 -46.333 -20 -79c0 -37.333 22.667 -71 68 -101l126 -83c46 -40.667 69 -90.667 69 -150c0 -57.333 -14.667 -104 -44 -140
c-31.333 -38.667 -74.666 -58 -129.999 -58c-58.667 0 -102.667 18.333 -132 55c-25.333 31.333 -41 77.666 -47 138.999l72 9c3.33301 -41.333 11.666 -72.333 24.999 -93c17.333 -27.333 45 -41 83 -41c34.667 0 60.667 12 78 36c15.333 21.333 23 50.333 23 87
c0 50 -22.667 91.333 -68 124l-126 80c-46 36.667 -69 83.667 -69 141c0 48 15 89.667 45 125s69 53 117 53c46.667 0 84 -15.333 112 -46c24 -26.667 41.333 -64.334 52 -113.001z" />
    <glyph glyph-name="T" unicode="T" 
d="M276 630h-150v65h367v-65h-146v-631h-71v631z" />
    <glyph glyph-name="U" unicode="U" 
d="M211 695l1.00098 -506.001c0 -42 5.66699 -72.667 17 -92c15.333 -26 42.333 -39 81 -39c38 0 64.667 13 80 39c12.667 21.333 19 52 19 92v506h72v-526c0 -53.333 -15.333 -96.666 -46 -129.999s-72.334 -50 -125.001 -50c-52 0 -93.333 16.333 -124 49s-46 75 -46 127
v530h71z" />
    <glyph glyph-name="V" unicode="V" 
d="M452 708l73 -15l-206 -708h-18l-206 708l73 15l142 -516z" />
    <glyph glyph-name="W" unicode="W" 
d="M527 695l-70 -710h-32l-114 417l-116 -417h-32l-70 710l72 13l33 -516l101 360h22l99 -360l35 516z" />
    <glyph glyph-name="X" unicode="X" 
d="M158 -15l-64 30l181 363l-149 297l66 34l118 -258l118 258l66 -34l-149 -297l181 -363l-64 -30l-151 316z" />
    <glyph glyph-name="Y" unicode="Y" 
d="M459 709l66 -27.999c-8.66699 -20 -29.334 -63.333 -62.001 -130c-30 -62 -53 -111 -69 -147c-24 -54.667 -40.333 -98.334 -49 -131.001c-0.666992 -0.666992 -1 -11 -1 -31v-52v-107c0 -32 0.333008 -60 1 -84l-71 -1v192v68c0 4 -0.333008 9 -1 15
c-11.333 43.333 -38.666 111.333 -81.999 204l-96 205l66 27l149 -352z" />
    <glyph glyph-name="Z" unicode="Z" 
d="M399 630h-263v65h370l-292 -632h300v-64h-409z" />
    <glyph glyph-name="bracketleft" unicode="[" 
d="M464 704v-64h-210v-616h210v-65h-282v745h282z" />
    <glyph glyph-name="backslash" unicode="\" 
d="M131 778h50l308 -807h-50z" />
    <glyph glyph-name="bracketright" unicode="]" 
d="M437 -41h-282v65h211v616h-211v64h282v-745z" />
    <glyph glyph-name="asciicircum" unicode="^" 
d="M111 370l171 338h56l167 -338h-54l-141 285l-145 -285h-54z" />
    <glyph glyph-name="underscore" unicode="_" 
d="M-2 -113v39h624v-39h-624z" />
    <glyph glyph-name="grave" unicode="`" 
d="M429 618l-28 -47l-196 86l38 67z" />
    <glyph glyph-name="a" unicode="a" 
d="M215 147l-51 -162l-70 26l171 532h90l171 -532l-71 -26l-49 162h-191zM310 457l-75 -246h150z" />
    <glyph glyph-name="b" unicode="b" 
d="M332 63c35.333 0 62.333 5.33301 81 16c24 14 36 37.333 36 70c0 30 -9.33301 53.667 -28 71s-43 26 -73 26h-96v-183h80zM328 312c26.667 0 48.167 7.5 64.5 22.5s24.5 36.167 24.5 63.5c0 28 -8.5 48.5 -25.5 61.5s-39.833 19.5 -68.5 19.5h-72v-167h77zM123 0v64.001
h56v415h-56v65h171c57.333 0 102.333 -9.66699 135 -29c41.333 -24.667 62 -63.667 62 -117c0 -22.667 -5.16699 -43.834 -15.5 -63.501s-24.833 -35.5 -43.5 -47.5c28.667 -9.33301 51 -25.833 67 -49.5s24 -50.834 24 -81.501c0 -51.333 -17.333 -90.666 -52 -117.999
c-32 -25.333 -74.333 -38 -127 -38h-221z" />
    <glyph glyph-name="c" unicode="c" 
d="M505 104c-22 -36.667 -46.332 -64.332 -72.999 -82.999c-31.333 -21.333 -67 -32 -107 -32c-73.333 0 -128.333 31.333 -165 94c-29.333 50.667 -44 115.667 -44 195c0 72.667 15 134 45 184c36 60 88.333 90 157 90c40 0 74.167 -10 102.5 -30s51.833 -49 70.5 -87
l-65 -33c-12 24 -26 43 -42 57c-20 17.333 -41.667 26 -65 26c-47.333 0 -82 -25.333 -104 -76c-16 -36.667 -24 -82.667 -24 -138c0 -57.333 7.33301 -103.333 22 -138c21.333 -50 56.666 -75 105.999 -75c28 0 53 8.66699 75 26c14 11.333 31.667 31.666 53 60.999z" />
    <glyph glyph-name="d" unicode="d" 
d="M121 543h182c87.333 0 148 -24.667 182 -74c28 -40.667 42 -106.667 42 -198c0 -92.667 -13.667 -159 -41 -199c-33.333 -48.667 -94.333 -73 -183 -73h-182v64h56v415h-56v65zM249 63l72 1c54.667 0 91.667 22.333 111 67c13.333 30.667 20 77 20 139
c0 81.333 -11.5 136.333 -34.5 165s-55.833 43 -98.5 43h-70v-415z" />
    <glyph glyph-name="e" unicode="e" 
d="M161 543h339v-65h-268v-160h221v-64h-221v-191h268v-64h-339v544z" />
    <glyph glyph-name="f" unicode="f" 
d="M180 543h342v-65h-270v-160h227v-64h-227v-255h-72v544z" />
    <glyph glyph-name="g" unicode="g" 
d="M493 49c-22.667 -18 -48.667 -32.333 -78 -43s-59 -16 -89 -16c-72.667 0 -126.334 30 -161.001 90c-28.667 49.333 -43 113 -43 191c0 76.667 14.333 140 43 190c35.333 61.333 88.333 92 159 92c36 0 69.667 -10 101 -30c28.667 -18 53.334 -43.333 74.001 -76l-61 -40
c-13.333 23.333 -29.333 41.666 -48 54.999c-21.333 15.333 -44.333 23 -69 23c-37.333 0 -66.333 -15.333 -87 -46c-25.333 -37.333 -38 -94 -38 -170c0 -75.333 12.333 -130.666 37 -165.999c21.333 -30.667 51.333 -46 90 -46c34.667 0 67.667 9.33301 99 28v141h-130v64
h201v-241z" />
    <glyph glyph-name="h" unicode="h" 
d="M133 543h71v-225h212v225h71v-544h-71v255h-212v-255h-71v544z" />
    <glyph glyph-name="i" unicode="i" 
d="M198 63h76v415h-76v65h224v-65h-77v-415h77v-64h-224v64z" />
    <glyph glyph-name="j" unicode="j" 
d="M182 203c0 -58 8.66699 -97.333 26 -118c15.333 -18 39 -27 71 -27c33.333 0 59 9.33301 77 28s27 44.667 27 78v379h71v-392c0 -50 -16.5 -89.333 -49.5 -118s-74.833 -43 -125.5 -43c-63.333 0 -108.333 20.667 -135 62c-22 34 -33 84.333 -33 151h71z" />
    <glyph glyph-name="k" unicode="k" 
d="M237 312h25l186 245l54 -43l-179 -228l210 -255l-54 -46l-219 268h-23v-254h-71v544h71v-231z" />
    <glyph glyph-name="l" unicode="l" 
d="M174 543h72v-480h283v-64h-355v544z" />
    <glyph glyph-name="m" unicode="m" 
d="M190 434l-16 -435h-76l22 544h93l97 -233l97 233h93l21 -544h-75l-14 435l-122 -284z" />
    <glyph glyph-name="n" unicode="n" 
d="M129 543l87 0.000976562l209 -456v13c0 18 -0.833008 42.333 -2.5 73s-2.5 49 -2.5 55v315h71v-544h-87l-209 456v-13c0 -18.667 0.833008 -43.334 2.5 -74.001s2.5 -49 2.5 -55v-314h-71v544z" />
    <glyph glyph-name="o" unicode="o" 
d="M503 270c0 -77.333 -12.666 -139.665 -37.999 -186.998c-32.667 -62 -84.334 -93 -155.001 -93c-68 0 -119 31.333 -153 94c-26.667 49.333 -40 111.666 -40 186.999s13 137.666 39 186.999c33.333 63.333 85 95 155 95c68 0 118.667 -31.667 152 -95
c26.667 -50 40 -112.667 40 -188zM191.001 271.001c0 -54.667 6.66699 -99.666 20 -134.999c19.333 -51.333 52 -77 98 -77s78.667 25.667 98 77c13.333 35.333 20 80.666 20 135.999c0 56.667 -6.33301 102 -19 136c-19.333 51.333 -52.333 77 -99 77
s-79.667 -25.667 -99 -77c-12.667 -34 -19 -79.667 -19 -137z" />
    <glyph glyph-name="p" unicode="p" 
d="M237 -1h-71v544l169 -1c50.667 0 91.667 -11.667 123 -35c34.667 -26 52 -63.667 52 -113c0 -76 -29.333 -124.667 -88 -146c-29.333 -10.667 -91 -16 -185 -16v-233zM332 296c32.667 0 57.333 7 74 21c19.333 16 29 40 29 72s-9 54.833 -27 68.5s-43.333 20.5 -76 20.5
h-95v-182h95z" />
    <glyph glyph-name="q" unicode="q" 
d="M519 17l-45.001 -48.999l-60 56c-30.667 -22.667 -65.667 -34 -105 -34c-68 0 -118.667 31.333 -152 94c-26.667 50 -40 112.333 -40 187c0 76 13 138.333 39 187c34 63.333 85.333 95 154 95c70.667 0 122.334 -33.667 155.001 -101c25.333 -52 38 -117.333 38 -196
c0 -34.667 -3.5 -67.334 -10.5 -98.001s-18.833 -59 -35.5 -85zM271.999 153.001l44 49l87 -80c8.66699 20.667 15 44.5 19 71.5s6 52.833 6 77.5c0 56.667 -6.33301 102 -19 136c-19.333 51.333 -52.333 77 -99 77s-79.667 -25.667 -99 -77
c-12.667 -34 -19 -79.667 -19 -137c0 -54.667 6.66699 -99.667 20 -135c19.333 -52 52 -78 98 -78c18 0 35.333 4.66699 52 14z" />
    <glyph glyph-name="r" unicode="r" 
d="M314 295c31.333 0 57.668 8.66699 79.001 26s32 41.666 32 72.999c0 26.667 -8.33301 47.334 -25 62.001s-38.334 22 -65.001 22h-111v-183h90zM152.002 543h185.001c49.333 0 88.666 -12.667 117.999 -38s44 -62.333 44 -111c0 -34 -10 -65.333 -30 -94
s-46.333 -48 -79 -58l133 -219l-62 -38l-138 246h-99v-232h-72v544z" />
    <glyph glyph-name="s" unicode="s" 
d="M198 173c6.66699 -36.667 18.3311 -64.3311 34.998 -82.998c19.333 -22 47 -33 83 -33c28.667 0 52.334 7.83301 71.001 23.5s28 37.834 28 66.501c0 37.333 -22.333 66.666 -67 87.999l-126 56c-45.333 27.333 -68 66.333 -68 117c0 43.333 15.5 78.166 46.5 104.499
s68.5 39.5 112.5 39.5s79.667 -12 107 -36s47 -58 59 -102l-68 -20c-6 28 -16.667 49.667 -32 65c-17.333 17.333 -39.666 26 -66.999 26c-24 0 -44.5 -6 -61.5 -18s-25.5 -29.667 -25.5 -53c0 -34 22.667 -61.667 68 -83l126 -56c45.333 -28.667 68 -69.667 68 -123
c0 -50.667 -15.667 -90.334 -47 -119.001s-72.666 -43 -123.999 -43s-91.833 14.167 -121.5 42.5s-49.834 68.5 -60.501 120.5z" />
    <glyph glyph-name="t" unicode="t" 
d="M276 478h-150v65h367v-65h-146v-479h-71v479z" />
    <glyph glyph-name="u" unicode="u" 
d="M211 543l1 -370.001c0 -38.667 5.66699 -66.667 17 -84c14 -21.333 39 -32 75 -32c40 0 67.5 9.16699 82.5 27.5s22.5 47.833 22.5 88.5v370h72v-403c0 -47.333 -17 -84.666 -51 -111.999c-31.333 -25.333 -71.333 -38 -120 -38c-50.667 0 -91 12.667 -121 38
c-32.667 27.333 -49 66 -49 116v399h71z" />
    <glyph glyph-name="v" unicode="v" 
d="M457 557l68 -26l-208 -546h-14l-208 546l68 26l147 -396z" />
    <glyph glyph-name="w" unicode="w" 
d="M168 557l41 -378l91 263h20l89 -263l44 378l73 -9l-78 -563h-26l-112 332l-112 -332h-26l-78 563z" />
    <glyph glyph-name="x" unicode="x" 
d="M166 -15l-64 36l167 266l-152 232l65 38l128 -206l128 206l65 -38l-152 -232l167 -266l-64 -36l-144 239z" />
    <glyph glyph-name="y" unicode="y" 
d="M454 557l66.999 -35l-51 -90l-81.5 -143.5c-27 -47.667 -41.5 -74.5 -43.5 -80.5v-209l-71 -1v211c-3.33301 10 -30.666 60 -81.999 150l-93 162l67 36l144 -278z" />
    <glyph glyph-name="z" unicode="z" 
d="M388 478h-252v65h371l-281 -480h288v-64h-409z" />
    <glyph glyph-name="braceleft" unicode="{" 
d="M478 -43l0.000976562 -28.001h-35c-74.667 0 -125.334 14.667 -152.001 44c-20 22 -30 61.667 -30 119c0 18 0.5 42.167 1.5 72.5s1.5 46.5 1.5 48.5c0 46 -14.333 74.333 -43 85c-1.33301 0.666992 -24.333 6.66699 -69 18c47.333 14 78.333 28 93 42s22 34.667 22 62
c0 14.667 -0.333008 26.334 -1 35.001c-3.33301 44 -5 71.333 -5 82c0 60 10.667 102 32 126c24 27.333 66 41 126 41h59v-28c-60 0 -101.333 -11.667 -124 -35c-18 -18 -27 -47 -27 -87c0 -13.333 2.33301 -41.333 7 -84c2.66699 -24.667 4 -41.667 4 -51
c0 -23.333 -3.66699 -43.5 -11 -60.5s-20.333 -30.833 -39 -41.5c19.333 -10 33 -24.667 41 -44c6 -14.667 9 -35.334 9 -62.001c0 -13.333 -1 -29.666 -3 -48.999c-4.66699 -44.667 -7 -72.667 -7 -84c0 -39.333 9 -68 27 -86c22.667 -23.333 63.667 -35 123 -35z" />
    <glyph glyph-name="bar" unicode="|" 
d="M286 825h48v-1126h-48v1126z" />
    <glyph glyph-name="braceright" unicode="}" 
d="M142 676l0.000976562 27.999h35c75.333 0 125.666 -14 150.999 -42c20 -22 30 -61.333 30 -118c0 -10 -0.333008 -27.667 -1 -53s-1 -45.333 -1 -60c0 -44.667 7.66699 -73 23 -85c8 -6 38 -15.333 90 -28c-48 -14.667 -79.333 -28.667 -94 -42s-22 -33 -22 -59
c0 -14.667 0.333008 -26.334 1 -35.001c3.33301 -44 5 -71.333 5 -82c0 -60.667 -10.667 -103.667 -32 -129c-23.333 -28 -65.333 -42 -126 -42h-59v28c60 0 101.333 12 124 36c18 18.667 27 48.334 27 89.001c0 13.333 -1.83301 36.833 -5.5 70.5s-5.5 55.167 -5.5 64.5
c0 24 3.5 44 10.5 60s19.833 29.333 38.5 40c-18.667 9.33301 -31.667 22.833 -39 40.5s-11 38.834 -11 63.501c0 16 1.83301 39.667 5.5 71s5.5 52.333 5.5 63c0 39.333 -9 68 -27 86c-22.667 23.333 -63.667 35 -123 35z" />
    <glyph glyph-name="asciitilde" unicode="~" 
d="M591 435c-16 -32.667 -37.332 -60 -63.999 -82c-30.667 -25.333 -62.334 -38 -95.001 -38c-28 0 -69.333 13 -124 39s-97 39 -127 39c-26.667 0 -50.667 -11.667 -72 -35c-10.667 -12 -26 -35 -46 -69l-35 25c21.333 38 42 66.667 62 86c28 27.333 59 41 93 41
c30.667 0 74 -13 130 -39s96 -39 120 -39c26 0 50.333 10.333 73 31c17.333 16 34 38 50 66z" />
    <glyph glyph-name="c128" 
d="M200 -1l-71.002 0.000976562v696h71v-40c14 16 31.5 28.167 52.5 36.5s43.167 12.5 66.5 12.5c72.667 0 122.334 -23 149.001 -69c20.667 -35.333 31 -92 31 -170l-1 -337c0 -75.333 -12.667 -129.666 -38 -162.999c-29.333 -38 -80.333 -57 -153 -57l-1 69
c52 0 86.333 13 103 39c12 19.333 18 56.666 18 111.999v337c0 61.333 -4.66699 101.666 -14 120.999c-16 33.333 -51 50 -105 50c-31.333 0 -57.166 -11.5 -77.499 -34.5s-30.5 -50.167 -30.5 -81.5v-521z" />
    <glyph glyph-name="c129" 
d="M135 207c-44.667 0 -78.9971 17.333 -102.997 52c-21.333 30.667 -32 69.334 -32 116.001c0 46 10.667 84.333 32 115c24 34.667 58.333 52 103 52c37.333 0 71.333 -12.667 102 -38c20.667 -17.333 45 -46 73 -86c24.667 37.333 48.667 65.666 72 84.999
c31.333 25.333 65.666 38 102.999 38c45.333 0 80 -18 104 -54c20.667 -31.333 31 -70.666 31 -117.999c0 -44 -11 -81 -33 -111c-24.667 -34 -58.334 -51 -101.001 -51c-29.333 0 -56.333 7.33301 -81 22c-28.667 17.333 -60.667 51.333 -96 102
c-24.667 -38.667 -48.334 -67.334 -71.001 -86.001c-30.667 -25.333 -65 -38 -103 -38zM135.003 251c28 0 56.332 13.665 84.999 40.998c18 16.667 38.667 42.334 62 77.001c-17.333 32.667 -36.666 59.334 -57.999 80.001c-28 27.333 -56.667 41 -86 41
c-31.333 0 -55 -13 -71 -39c-13.333 -22 -20 -49.667 -20 -83c0 -32 6.33301 -58.333 19 -79c15.333 -25.333 38.333 -38 69 -38zM481.002 493.998c-29.333 0 -58 -13.668 -86 -41.001c-18 -18 -38 -44.333 -60 -79c24.667 -33.333 46 -58.666 64 -75.999
c30 -28.667 58.333 -43 85 -43c30 0 52.667 13.667 68 41c12.667 22.667 19 50 19 82s-6.66699 58.333 -20 79c-16 24.667 -39.333 37 -70 37z" />
    <glyph glyph-name="c141" 
d="M626 364c-17.333 -33.333 -38.334 -60.667 -63.001 -82c-29.333 -25.333 -60.333 -38 -93 -38c-30 0 -72 13.167 -126 39.5s-95 39.5 -123 39.5c-33.333 0 -62.666 -16.667 -87.999 -50c-8 -10.667 -19.667 -29 -35 -55l-34 25c22 39.333 42.333 68 61 86
c28 27.333 59.667 41 95 41c27.333 0 59.666 -8 96.999 -24c82.667 -35.333 133.334 -53 152.001 -53c26 0 50.167 9.66699 72.5 29s38.833 42 49.5 68zM604.999 505.999c-16 -32.667 -37.333 -60 -64 -82c-30.667 -25.333 -62.667 -38 -96 -38c-28 0 -69.333 13 -124 39
s-96.667 39 -126 39c-26.667 0 -50.667 -11.667 -72 -35c-7.33301 -8 -23 -31.333 -47 -70l-34 26c21.333 38 42 66.667 62 86c28.667 27.333 60 41 94 41c30 0 72.667 -13 128 -39s96.333 -39 123 -39c24 0 48 10.667 72 32c20 18 36.333 39.667 49 65z" />
    <glyph glyph-name="c142" 
d="M344 708l-0.000976562 -64c72.667 0 131.334 -32 176.001 -96c40 -57.333 60 -124 60 -200s-19.667 -142.667 -59 -200c-44.667 -65.333 -103.334 -98 -176.001 -98l-1 -65h-70v65c-73.333 0 -132 31.667 -176 95c-39.333 56.667 -59 123 -59 199
c0 76.667 19.667 144 59 202c44.667 65.333 103.334 98 176.001 98v64h70zM273.999 584c-54 0 -95.667 -27.667 -125 -83c-24 -44.667 -36 -96.667 -36 -156c0 -58.667 12 -110 36 -154c30 -54.667 71.667 -82 125 -82v475zM344.999 111c52.667 0 94 27.333 124 82
c24.667 45.333 37 97 37 155s-12 109.333 -36 154c-30 55.333 -71.667 83 -125 83v-474z" />
    <glyph glyph-name="c143" 
d="M430 278h-80v59h223v-59h-79v-279h-64v279zM118 -1h-71.001v696h151c60.667 0 107.834 -15.833 141.501 -47.5s50.5 -77.5 50.5 -137.5c0 -87.333 -25.667 -145 -77 -173c-35.333 -19.333 -100.333 -29 -195 -29v-309zM117.999 372l96 0.000976562
c36 0 62.667 14.667 80 44c14 23.333 21 54.666 21 93.999c0 80 -39.333 120 -118 120h-79v-258z" />
    <glyph glyph-name="c144" horiz-adv-x="644" 
 />
    <glyph glyph-name="nonbreakingspace" unicode="&#xa0;" horiz-adv-x="288" 
 />
    <glyph glyph-name="exclamdown" unicode="&#xa1;" 
d="M256 695h98v-156h-98v156zM359 -1h-108l19 480h68z" />
    <glyph glyph-name="cent" unicode="&#xa2;" 
d="M352 -10l-71.001 -0.000976562v82c-60 12.667 -104 49 -132 109c-22 46.667 -33 105 -33 175c0 66.667 11.667 122.667 35 168c28 54.667 71.333 89.334 130 104.001v76h71l1 -74c28.667 -3.33301 56 -16.666 82 -39.999c20.667 -19.333 39.334 -44.333 56.001 -75
l-66 -34c-9.33301 18.667 -19 33.667 -29 45c-12 14 -26.667 24.667 -44 32l1 -419c18.667 5.33301 36.667 16.666 54 33.999c12.667 12.667 26 29.667 40 51l58 -40c-18.667 -30.667 -40 -55.334 -64 -74.001c-27.333 -21.333 -57 -34.666 -89 -39.999v-80z
M280.999 556.999c-34.667 -14 -59.333 -42.999 -74 -86.999c-10.667 -32 -16 -71.667 -16 -119c0 -48.667 5 -88.334 15 -119.001c14.667 -44 39.667 -73.667 75 -89v414z" />
    <glyph glyph-name="sterling" unicode="&#xa3;" 
d="M435 421l0.00390625 -64.001h-172c5.33301 -21.333 11 -42.333 17 -63c6 -24.667 9 -46 9 -64s-3.16699 -37.5 -9.5 -58.5s-19.5 -48.5 -39.5 -82.5c12 2.66699 23.167 4.66699 33.5 6s22.166 2 35.499 2c17.333 0 40 -6.83301 68 -20.5s45.333 -20.5 52 -20.5
c14 0 28.667 6 44 18l23 20l42 -46c-18.667 -19.333 -35.334 -33.333 -50.001 -42c-19.333 -11.333 -40 -17 -62 -17c-14 0 -36.333 6.66699 -67 20s-56 20 -76 20c-18 0 -37.333 -4 -58 -12c-16 -6 -33.667 -15.333 -53 -28l-38 50c30 50 47.667 80.667 53 92
c18.667 37.333 28 71.333 28 102c0 18 -2.66699 38.667 -8 62l-16 62h-110v64h92c-12.667 44 -19.334 68.333 -20.001 73c-2.66699 14 -4 29.667 -4 47c0 46 18.333 84.667 55 116s78.667 47 126 47c40 0 76.667 -11 110 -33s57.666 -51.667 72.999 -89l-65 -23
c-12 24.667 -27.5 44.334 -46.5 59.001s-41.5 22 -67.5 22c-35.333 0 -62.5 -10.5 -81.5 -31.5s-28.5 -49.833 -28.5 -86.5c0 -16.667 3.33301 -37.667 10 -63l10 -38h191z" />
    <glyph glyph-name="currency" unicode="&#xa4;" 
d="M9 638l36.001 34.001l112 -110c43.333 34.667 94.666 52 153.999 52c58 0 108.667 -17.667 152 -53l112 111l36 -34l-114 -112c16.667 -22.667 29.5 -47 38.5 -73s13.5 -52.333 13.5 -79c0 -54 -17 -104.333 -51 -151l113 -112l-36 -34l-112 111
c-44 -36 -95 -54 -153 -54c-56 0 -107 18 -153 54l-112 -111l-36 34l113 112c-16.667 22.667 -29.5 47 -38.5 73s-13.5 52.333 -13.5 79c0 51.333 17.333 101.666 52 150.999zM507.001 374.001c0 55.333 -19 102.333 -57 141s-84.667 58 -140 58s-102 -19 -140 -57
s-57 -85 -57 -141c0 -55.333 19 -102.333 57 -141s84.667 -58 140 -58s102 19 140 57s57 85 57 141z" />
    <glyph glyph-name="yen" unicode="&#xa5;" 
d="M498 341v-64h-153v-278h-71v278h-152v64h126l-153 341l66 27l149 -352l149 352l66 -27l-153 -341h126z" />
    <glyph glyph-name="brokenbar" unicode="&#xa6;" 
d="M334 825v-377h-48v377h48zM334 76v-377h-48v377h48z" />
    <glyph glyph-name="section" unicode="&#xa7;" 
d="M482 339c0 -20.667 -4.99707 -40.0029 -14.9971 -58.0029s-23.667 -33.333 -41 -46c18 -13.333 32 -28.5 42 -45.5s15 -36.167 15 -57.5c0 -42 -16.5 -76.167 -49.5 -102.5s-71.5 -39.5 -115.5 -39.5c-43.333 0 -81.5 12.5 -114.5 37.5s-55.167 58.5 -66.5 100.5l71 24
c8 -28.667 22.167 -52.167 42.5 -70.5s44.833 -27.5 73.5 -27.5c23.333 0 43.166 6.33301 59.499 19s24.5 30.334 24.5 53.001c0 29.333 -22 55.666 -66 78.999l-122 63c-44.667 30 -67 67.333 -67 112c0 18 4.83301 35.833 14.5 53.5s22.5 31.834 38.5 42.501
c-28.667 24.667 -43 56.334 -43 95.001c0 39.333 15.5 71.333 46.5 96s66.833 37 107.5 37c34.667 0 65.667 -10 93 -30s48.666 -46.333 63.999 -79l-63 -27c-9.33301 22.667 -21.833 40.334 -37.5 53.001s-35.167 19 -58.5 19c-22.667 0 -41.334 -6.33301 -56.001 -19
s-22 -30 -22 -52c0 -25.333 21 -49 63 -71l118 -59c42.667 -28 64 -61.333 64 -100zM259.003 445.997c-20.667 -19.333 -31.001 -43.666 -31.001 -72.999c0 -12 3.66699 -22 11 -30s17.333 -15.333 30 -22l105 -56c22 16 33 38 33 66c0 17.333 -12 35.333 -36 54
c-9.33301 7.33301 -46.666 27.666 -111.999 60.999z" />
    <glyph glyph-name="dieresis" unicode="&#xa8;" 
d="M265 642c0 -17.333 -4.33496 -32.833 -13.002 -46.5s-21 -20.5 -37 -20.5c-16.667 0 -29.5 7.33301 -38.5 22s-13.5 30.667 -13.5 48s4.33301 32.166 13 44.499s21.334 18.5 38.001 18.5s29.334 -6.66699 38.001 -20s13 -28.666 13 -45.999zM455.998 638
c0 -16 -4.66895 -30.667 -14.002 -44s-21.666 -20 -36.999 -20c-16.667 0 -29.334 7.16699 -38.001 21.5s-13 30.5 -13 48.5c0 17.333 4.33301 32.333 13 45s21.334 19 38.001 19s29.334 -7.16699 38.001 -21.5s13 -30.5 13 -48.5z" />
    <glyph glyph-name="copyright" unicode="&#xa9;" 
d="M619 347c0 -93.333 -27.334 -174.667 -82.001 -244c-59.333 -75.333 -134.666 -113 -225.999 -113c-90.667 0 -166 37.667 -226 113c-56 70 -84 151.333 -84 244c0 93.333 27.667 174.666 83 243.999c60 75.333 135.667 113 227 113c90 0 165 -37.667 225 -113
c55.333 -69.333 83 -150.666 83 -243.999zM54.999 347.999c0 -76.667 23 -145 69 -205c50 -65.333 112.333 -98 187 -98c72 0 133.333 33.333 184 100c46.667 61.333 70 129.333 70 204c0 74 -23.333 141.667 -70 203c-50.667 66 -112 99 -184 99
c-76 0 -138.667 -32 -188 -96c-45.333 -59.333 -68 -128.333 -68 -207zM465.999 285.999c-4 -40 -18.334 -72.999 -43.001 -98.999c-26.667 -28.667 -59.667 -43 -99 -43c-54 0 -96.667 21.667 -128 65c-28.667 39.333 -43 87 -43 143c0 56.667 13.667 104 41 142
c30.667 42.667 73.334 64 128.001 64c40.667 0 73.334 -12.333 98.001 -37s40 -57.667 46 -99h-54c-3.33301 24.667 -12.833 44.5 -28.5 59.5s-35.834 22.5 -60.501 22.5c-41.333 0 -71.666 -15.333 -90.999 -46c-16.667 -26 -25 -60.667 -25 -104
c0 -41.333 9 -76.333 27 -105c21.333 -33.333 51.666 -50 90.999 -50c26 0 46 7.66699 60 23s23 36.666 27 63.999h54z" />
    <glyph glyph-name="ordfeminine" unicode="&#xaa;" 
d="M258 444l-33 -94l-68 22l116 323h74l116 -323l-68 -22l-33 94h-104zM310 600l-33 -97h66zM143 304h334v-60h-334v60z" />
    <glyph glyph-name="guillemotleft" unicode="&#xab;" 
d="M353 542l-213 -199l213 -199l-50 -54l-265 253l265 251zM585 542l-212 -199l212 -199l-50 -54l-265 253l265 251z" />
    <glyph glyph-name="logicalnot" unicode="&#xac;" 
d="M539 420h-506v48h554v-289h-48v241z" />
    <glyph glyph-name="minus" unicode="&#xad;" 
d="M587 350h-554v48h554v-48z" />
    <glyph glyph-name="registered" unicode="&#xae;" 
d="M-2 345c0 92 28.668 172.999 86.001 242.999c61.333 74.667 137 112 227 112c90.667 0 166 -37 226 -111c56.667 -69.333 85 -150.333 85 -243c0 -93.333 -28 -174.666 -84 -243.999c-60.667 -75.333 -136.334 -113 -227.001 -113c-91.333 0 -167.333 37 -228 111
c-56.667 69.333 -85 151 -85 245zM568.001 344.999c0 76 -23.999 143.999 -71.999 203.999c-51.333 64 -114 96 -188 96c-72.667 0 -134.334 -32.333 -185.001 -97c-47.333 -60 -71 -127.667 -71 -203c0 -77.333 23.333 -145.666 70 -204.999
c50.667 -64 113.667 -96 189 -96c74.667 0 137 32 187 96c46.667 60 70 128.333 70 205zM467.002 146.998h-62.999l-99 183h-56v-183h-54v398h152c39.333 0 69.666 -8.16699 90.999 -24.5s32 -43.5 32 -81.5c0 -34 -9.33301 -60.667 -28 -80s-45 -29 -79 -29z
M249.003 383.998l93.001 0.000976562c23.333 0 40.666 3.66699 51.999 11c14.667 9.33301 22 24.666 22 45.999c0 20.667 -6 34.167 -18 40.5s-30 9.5 -54 9.5h-95v-107z" />
    <glyph glyph-name="macron" unicode="&#xaf;" 
d="M161 608v65h299v-65h-299z" />
    <glyph glyph-name="degree" unicode="&#xb0;" 
d="M310 773c55.333 0 102.669 -19.666 142.002 -58.999s59 -87 59 -143s-19.333 -103.667 -58 -143s-86.334 -59 -143.001 -59c-56 0 -103.5 19.833 -142.5 59.5s-58.5 87.5 -58.5 143.5c0 55.333 19.667 102.666 59 141.999s86.666 59 141.999 59zM314.003 415.001
c41.333 0 76.832 15.501 106.499 46.501s44.5 67.5 44.5 109.5c0 43.333 -15.167 80.166 -45.5 110.499s-67.166 45.5 -110.499 45.5c-44 0 -80.667 -15.667 -110 -47s-44 -69 -44 -113c0 -43.333 15.5 -79.5 46.5 -108.5s68.5 -43.5 112.5 -43.5z" />
    <glyph glyph-name="plusminus" unicode="&#xb1;" 
d="M587 399h-253v-253h-48v253h-253v48h253v254h48v-254h253v-48zM587 48h-554v48h554v-48z" />
    <glyph glyph-name="twosuperior" unicode="&#xb2;" 
d="M194 389c36 37.333 67.001 71.001 93.001 101.001c50.667 58 76 96.667 76 116c0 13.333 -4.33301 24 -13 32s-20 12 -34 12c-19.333 0 -33.833 -6 -43.5 -18s-15.834 -28.667 -18.501 -50l-61 8c4 35.333 16.5 63.166 37.5 83.499s49.167 30.5 84.5 30.5
c30.667 0 57 -8.33301 79 -25s33 -40 33 -70c0 -34 -28.667 -82.333 -86 -145l-63 -66h148v-54h-232v45z" />
    <glyph glyph-name="threesuperior" unicode="&#xb3;" 
d="M423 659l-89.001 -81c26.667 -4 49.167 -14.167 67.5 -30.5s27.5 -37.5 27.5 -63.5c0 -44.667 -21.333 -80.334 -64 -107.001c-36.667 -22.667 -78.667 -34 -126 -34l-42 1v54c44 0 79 4.33301 105 13c42 14 63 38 63 72c0 16.667 -7.33301 28.667 -22 36s-31 11 -49 11
c-8 0 -17.167 -0.666992 -27.5 -2s-20.166 -2.66602 -29.499 -3.99902v42l94 84h-139v54h231v-45z" />
    <glyph glyph-name="acute" unicode="&#xb4;" 
d="M429 657l-196 -86l-28 47l185 106z" />
    <glyph glyph-name="mu" unicode="&#xb5;" 
d="M415 42c-26.667 -35.333 -61.001 -53 -103.001 -53c-45.333 0 -80.666 16.667 -105.999 50v-259h-71v763h71v-359c0 -33.333 8.83301 -62.833 26.5 -88.5s42.5 -38.5 74.5 -38.5c35.333 0 63 16.667 83 50c16.667 28 25 61 25 99v337h71v-544h-71v43z" />
    <glyph glyph-name="paragraph" unicode="&#xb6;" horiz-adv-x="665" 
d="M537 706v-53.998h-34v-819h-57v819h-144v-819h-58l1 486c-48 7.33301 -86.167 28.166 -114.5 62.499s-42.5 76.166 -42.5 125.499c0 64 20.333 113.167 61 147.5s93.667 51.5 159 51.5h229z" />
    <glyph glyph-name="periodcentered" unicode="&#xb7;" 
d="M312 427c15.333 0 27.666 -5 36.999 -15s14 -22.667 14 -38c0 -16.667 -5 -29.667 -15 -39s-23.333 -14 -40 -14c-15.333 0 -27.666 5.33301 -36.999 16s-14 24 -14 40c0 15.333 5.16699 27.5 15.5 36.5s23.5 13.5 39.5 13.5z" />
    <glyph glyph-name="periodcentered" unicode="&#x2219;" 
d="M312 427c15.333 0 27.666 -5 36.999 -15s14 -22.667 14 -38c0 -16.667 -5 -29.667 -15 -39s-23.333 -14 -40 -14c-15.333 0 -27.666 5.33301 -36.999 16s-14 24 -14 40c0 15.333 5.16699 27.5 15.5 36.5s23.5 13.5 39.5 13.5z" />
    <glyph glyph-name="cedilla" unicode="&#xb8;" 
d="M340 -43c23.333 0 43.001 -6.66895 59.001 -20.002s24 -31.666 24 -54.999c0 -24 -10.5 -43.333 -31.5 -58s-44.167 -22 -69.5 -22c-14.667 0 -32.334 3.33301 -53.001 10c-10 3.33301 -27 10 -51 20l22 55c14.667 -6.66699 28.167 -12 40.5 -16s24.5 -6 36.5 -6
c11.333 0 19.5 1.83301 24.5 5.5s7.5 8.83398 7.5 15.501c0 16 -13.5 25.333 -40.5 28s-43.167 4 -48.5 4l35 97h64z" />
    <glyph glyph-name="onesuperior" unicode="&#xb9;" 
d="M289 632l-64 -22l-19 49l148 50v-311h60v-54h-201v54h76v234z" />
    <glyph glyph-name="ordmasculine" unicode="&#xba;" 
d="M143 304h334v-60h-334v60zM446 525c0 -45.333 -11 -83.333 -33 -114c-24.667 -34 -59 -51 -103 -51c-48 0 -83.333 18.333 -106 55c-19.333 30.667 -29 71.667 -29 123c0 46 10.667 84 32 114c24.667 34.667 59.334 52 104.001 52c47.333 0 82.666 -18.667 105.999 -56
c19.333 -31.333 29 -72.333 29 -123zM246 532c0 -29.333 3.33301 -53 10 -71c10 -27.333 27.667 -41 53 -41c24.667 0 42.334 13.333 53.001 40c7.33301 18.667 11 43 11 73c0 29.333 -3.66699 53.333 -11 72c-10.667 27.333 -28.334 41 -53.001 41
c-25.333 0 -43 -13.667 -53 -41c-6.66699 -18 -10 -42.333 -10 -73z" />
    <glyph glyph-name="guillemotright" unicode="&#xbb;" 
d="M350 343l-265 -253l-50 54l212 199l-212 199l50 52zM582 343l-265 -253l-50 54l212 199l-212 199l50 52z" />
    <glyph glyph-name="onequarter" unicode="&#xbc;" 
d="M343 80l60 280l62 -11l-48 -215h74v169h65v-169h29v-54h-29v-81h-65v81h-148zM118 632l-64 -22l-19 49l147 50v-311h61v-54h-202v54h77v234zM532 677l-392 -692l-56 28l391 696z" />
    <glyph glyph-name="onehalf" unicode="&#xbd;" 
d="M125 632l-63 -22l-20 49l148 50v-311h60v-54h-201v54h76v234zM536 677l-391 -692l-57 28l392 696zM344 44l121 134.999c32.667 40.667 49 68 49 82c0 13.333 -4.66699 24 -14 32s-20.666 12 -33.999 12c-19.333 0 -33.833 -6 -43.5 -18s-15.834 -28.667 -18.501 -50
l-61 8c4 36.667 16.167 64.834 36.5 84.501s48.833 29.5 85.5 29.5c30.667 0 57.167 -8.33301 79.5 -25s33.5 -40 33.5 -70c0 -34 -29 -82.333 -87 -145l-63 -66h148v-54h-232v45z" />
    <glyph glyph-name="threequarters" unicode="&#xbe;" 
d="M344 80l61 280l61 -11l-48 -215h74v169h65v-169h29v-54h-29v-81h-65v81h-148zM533 677l-392 -692l-56 28l391 696zM266 659l-88.001 -81c26.667 -4 49 -14.167 67 -30.5s27 -37.5 27 -63.5c0 -45.333 -21 -81 -63 -107c-35.333 -22 -77.666 -33 -126.999 -33l-42 1v54
c44.667 0 79.667 4 105 12c42 13.333 63 37.333 63 72c0 16.667 -7.33301 28.667 -22 36s-31 11 -49 11c-8 0 -17 -0.666992 -27 -2l-29 -4v42l94 84h-140v54h231v-45z" />
    <glyph glyph-name="questiondown" unicode="&#xbf;" 
d="M350 466l0.00195312 -18.001c0 -60 -25.833 -112.167 -77.5 -156.5s-77.5 -85.5 -77.5 -123.5c0 -32 9.16699 -58.5 27.5 -79.5s43.5 -31.5 75.5 -31.5c37.333 0 67.666 15 90.999 45c20.667 26 34 59 40 99l72 -17c-10.667 -59.333 -31.334 -105.666 -62.001 -138.999
c-34.667 -37.333 -80.667 -56 -138 -56c-54.667 0 -98.5 15.833 -131.5 47.5s-49.5 75.167 -49.5 130.5c0 54 26.167 104.5 78.5 151.5s78.5 96.167 78.5 147.5h73zM264.002 694.999h98v-156h-98v156z" />
    <glyph glyph-name="Agrave" unicode="&#xc0;" 
d="M216 213l-54 -228l-70 19l176 691h84l176 -691l-71 -19l-54 228h-187zM311 597l-77 -319h152zM429 770l-28 -47l-196 86l38 67z" />
    <glyph glyph-name="Aacute" unicode="&#xc1;" 
d="M216 213l-54 -228l-70 19l176 691h84l176 -691l-71 -19l-54 228h-187zM311 597l-77 -319h152zM429 809l-196 -86l-28 47l185 106z" />
    <glyph glyph-name="Acircumflex" unicode="&#xc2;" 
d="M216 213l-54 -228l-70 19l176 691h84l176 -691l-71 -19l-54 228h-187zM311 597l-77 -319h152zM178 724l-26 39l158 107l158 -107l-25 -39l-133 64z" />
    <glyph glyph-name="Atilde" unicode="&#xc3;" 
d="M216 213l-54 -228l-70 19l176 691h84l176 -691l-71 -19l-54 228h-187zM311 597l-77 -319h152zM471 843c-8.66699 -34.667 -18.002 -59.333 -28.002 -74c-16 -24.667 -38 -37 -66 -37c-20 0 -43.667 10 -71 30s-45.666 30 -54.999 30c-12 0 -22.667 -8 -32 -24
c-4 -6.66699 -9.66699 -20.334 -17 -41.001l-53 21c10.667 28 18.667 47 24 57c18.667 34 45.667 51 81 51c16.667 0 38.334 -10.167 65.001 -30.5s45 -30.5 55 -30.5c12 0 21.667 8 29 24c6.66699 20.667 11 34.334 13 41.001z" />
    <glyph glyph-name="Adieresis" unicode="&#xc4;" 
d="M216 213l-54 -228l-70 19l176 691h84l176 -691l-71 -19l-54 228h-187zM311 597l-77 -319h152zM265 794c0 -17.333 -4.33496 -32.833 -13.002 -46.5s-21 -20.5 -37 -20.5c-16.667 0 -29.5 7.33301 -38.5 22s-13.5 30.667 -13.5 48s4.33301 32.166 13 44.499
s21.334 18.5 38.001 18.5s29.334 -6.66699 38.001 -20s13 -28.666 13 -45.999zM455.998 789c0 -16 -4.66895 -30.499 -14.002 -43.499s-21.666 -19.5 -36.999 -19.5c-16.667 0 -29.334 7.16699 -38.001 21.5s-13 30.5 -13 48.5c0 17.333 4.33301 32.166 13 44.499
s21.334 18.5 38.001 18.5s29.334 -7.16699 38.001 -21.5s13 -30.5 13 -48.5z" />
    <glyph glyph-name="Aring" unicode="&#xc5;" 
d="M216 213l-54 -228l-70 19l176 691h84l176 -691l-71 -19l-54 228h-187zM311 597l-77 -319h152zM401 771c0 -25.333 -9.00098 -47.001 -27.001 -65.001s-39.333 -27 -64 -27s-46 9 -64 27s-27 39.333 -27 64c0 25.333 8.83301 46.833 26.5 64.5s38.834 26.5 63.501 26.5
c25.333 0 47 -8.66699 65 -26s27 -38.666 27 -63.999zM261.999 766.999c0 -12.667 4.99902 -23.333 14.999 -32s22 -13 36 -13c12.667 0 23.334 5 32.001 15s13 21.333 13 34s-5.16699 23.5 -15.5 32.5s-21.833 13.5 -34.5 13.5c-13.333 0 -24.333 -5 -33 -15
s-13 -21.667 -13 -35z" />
    <glyph glyph-name="AE" unicode="&#xc6;" 
d="M292 630h-26l-82 -352h108v352zM292 213h-122l-55 -228l-73 19l175 691h310v-65h-163v-226h150v-65h-150v-276h163v-64h-235v214z" />
    <glyph glyph-name="Ccedilla" unicode="&#xc7;" 
d="M505 104c-20 -34 -45.666 -61.498 -76.999 -82.498s-66 -31.5 -104 -31.5c-56.667 0 -101.667 20.333 -135 61c-26.667 32.667 -46.334 79.667 -59.001 141c-9.33301 46 -14 97.333 -14 154c0 59.333 4.33301 110.666 13 153.999c12 61.333 31.667 108.666 59 141.999
c34 41.333 79.333 62 136 62c37.333 0 71 -10.667 101 -32c26 -18.667 49.333 -46 70 -82l-61 -36c-10 22.667 -24.833 42 -44.5 58s-41.167 24 -64.5 24c-55.333 0 -93.666 -37 -114.999 -111c-13.333 -46 -20 -105.667 -20 -179c0 -74.667 6.33301 -134 19 -178
c21.333 -74 59.666 -111 114.999 -111c25.333 0 49.333 9.33301 72 28c18 14.667 34.667 34.667 50 60zM340.001 -41.998c23.333 0 43.001 -6.66895 59.001 -20.002s24 -31.666 24 -54.999c0 -24 -10.5 -43.333 -31.5 -58s-44.167 -22 -69.5 -22
c-14.667 0 -32.334 3.33301 -53.001 10c-10 3.33301 -27 10 -51 20l22 55c14.667 -6.66699 28.167 -12 40.5 -16s24.5 -6 36.5 -6c11.333 0 19.5 1.83301 24.5 5.5s7.5 8.83398 7.5 15.501c0 16 -13.5 25.333 -40.5 28s-43.167 4 -48.5 4l35 97h64z" />
    <glyph glyph-name="Egrave" unicode="&#xc8;" 
d="M161 695h339v-65h-268v-226h221v-65h-221v-276h268v-64h-339v696zM429 770l-28 -47l-196 86l38 67z" />
    <glyph glyph-name="Eacute" unicode="&#xc9;" 
d="M161 695h339v-65h-268v-226h221v-65h-221v-276h268v-64h-339v696zM429 809l-196 -86l-28 47l185 106z" />
    <glyph glyph-name="Ecircumflex" unicode="&#xca;" 
d="M161 695h339v-65h-268v-226h221v-65h-221v-276h268v-64h-339v696zM178 724l-26 39l158 107l158 -107l-25 -39l-133 64z" />
    <glyph glyph-name="Edieresis" unicode="&#xcb;" 
d="M161 695h339v-65h-268v-226h221v-65h-221v-276h268v-64h-339v696zM265 794c0 -17.333 -4.33496 -32.833 -13.002 -46.5s-21 -20.5 -37 -20.5c-16.667 0 -29.5 7.33301 -38.5 22s-13.5 30.667 -13.5 48s4.33301 32.166 13 44.499s21.334 18.5 38.001 18.5
s29.334 -6.66699 38.001 -20s13 -28.666 13 -45.999zM455.998 789c0 -16 -4.66895 -30.499 -14.002 -43.499s-21.666 -19.5 -36.999 -19.5c-16.667 0 -29.334 7.16699 -38.001 21.5s-13 30.5 -13 48.5c0 17.333 4.33301 32.166 13 44.499s21.334 18.5 38.001 18.5
s29.334 -7.16699 38.001 -21.5s13 -30.5 13 -48.5z" />
    <glyph glyph-name="Igrave" unicode="&#xcc;" 
d="M274 630h-94v65h260v-65h-95v-567h95v-64h-260v64h94v567zM429 770l-28 -47l-196 86l38 67z" />
    <glyph glyph-name="Iacute" unicode="&#xcd;" 
d="M274 630h-94v65h260v-65h-95v-567h95v-64h-260v64h94v567zM429 809l-196 -86l-28 47l185 106z" />
    <glyph glyph-name="Icircumflex" unicode="&#xce;" 
d="M274 630h-94v65h260v-65h-95v-567h95v-64h-260v64h94v567zM178 724l-26 39l158 107l158 -107l-25 -39l-133 64z" />
    <glyph glyph-name="Idieresis" unicode="&#xcf;" 
d="M274 630h-94v65h260v-65h-95v-567h95v-64h-260v64h94v567zM265 794c0 -17.333 -4.33496 -32.833 -13.002 -46.5s-21 -20.5 -37 -20.5c-16.667 0 -29.5 7.33301 -38.5 22s-13.5 30.667 -13.5 48s4.33301 32.166 13 44.499s21.334 18.5 38.001 18.5
s29.334 -6.66699 38.001 -20s13 -28.666 13 -45.999zM455.998 789c0 -16 -4.66895 -30.499 -14.002 -43.499s-21.666 -19.5 -36.999 -19.5c-16.667 0 -29.334 7.16699 -38.001 21.5s-13 30.5 -13 48.5c0 17.333 4.33301 32.166 13 44.499s21.334 18.5 38.001 18.5
s29.334 -7.16699 38.001 -21.5s13 -30.5 13 -48.5z" />
    <glyph glyph-name="Eth" unicode="&#xd0;" 
d="M121 630l-0.000976562 65h184c66 0 116.667 -18.667 152 -56c29.333 -30.667 49 -75.667 59 -135c6.66699 -38.667 10 -94 10 -166c0 -134 -19.667 -225.333 -59 -274c-35.333 -43.333 -88.666 -65 -159.999 -65h-186v64h56v251h-56v65h56v251h-56zM248.999 379h81.999
v-65h-82v-251l55 1c68.667 0 113 34.333 133 103c10 34 15 97 15 189c0 76.667 -5.33301 133.667 -16 171c-19.333 68.667 -57.666 103 -114.999 103h-72v-251z" />
    <glyph glyph-name="Ntilde" unicode="&#xd1;" 
d="M129 695h88l205 -583l-2 155v428h71v-696h-88l-205 584l2 -158v-426h-71v696zM471 843c-8.66699 -34.667 -18.002 -59.333 -28.002 -74c-16 -24.667 -38 -37 -66 -37c-20 0 -43.667 10 -71 30s-45.666 30 -54.999 30c-12 0 -22.667 -8 -32 -24
c-4 -6.66699 -9.66699 -20.334 -17 -41.001l-53 21c10.667 28 18.667 47 24 57c18.667 34 45.667 51 81 51c16.667 0 38.334 -10.167 65.001 -30.5s45 -30.5 55 -30.5c12 0 21.667 8 29 24c6.66699 20.667 11 34.334 13 41.001z" />
    <glyph glyph-name="Ograve" unicode="&#xd2;" 
d="M503 337c0 -94 -10.001 -167.998 -30.001 -221.998c-31.333 -84 -85.666 -126 -162.999 -126c-57.333 0 -101.666 21 -132.999 63c-24.667 33.333 -41.667 81.666 -51 144.999c-6 41.333 -9 94 -9 158c0 94 10 168.333 30 223c30.667 84 85 126 163 126
c56.667 0 100.667 -21.667 132 -65c25.333 -34.667 42.666 -83.667 51.999 -147c6 -40.667 9 -92.334 9 -155.001zM309.999 57.002c49.333 0 83.334 31.001 102.001 93.001c11.333 38 17 89.333 17 154v33.5c0 11.667 0.333008 24.167 1 37.5
c0 75.333 -6 132.666 -18 171.999c-18.667 60 -52.334 90 -101.001 90c-50 0 -84.667 -34 -104 -102c-11.333 -40 -17 -94.333 -17 -163v-43c0 -76 5.66699 -134 17 -174c18.667 -65.333 53 -98 103 -98zM429 770.003l-28 -47l-196 86l38 67z" />
    <glyph glyph-name="Oacute" unicode="&#xd3;" 
d="M503 337c0 -94 -10.001 -167.998 -30.001 -221.998c-31.333 -84 -85.666 -126 -162.999 -126c-57.333 0 -101.666 21 -132.999 63c-24.667 33.333 -41.667 81.666 -51 144.999c-6 41.333 -9 94 -9 158c0 94 10 168.333 30 223c30.667 84 85 126 163 126
c56.667 0 100.667 -21.667 132 -65c25.333 -34.667 42.666 -83.667 51.999 -147c6 -40.667 9 -92.334 9 -155.001zM309.999 57.002c49.333 0 83.334 31.001 102.001 93.001c11.333 38 17 89.333 17 154v33.5c0 11.667 0.333008 24.167 1 37.5
c0 75.333 -6 132.666 -18 171.999c-18.667 60 -52.334 90 -101.001 90c-50 0 -84.667 -34 -104 -102c-11.333 -40 -17 -94.333 -17 -163v-43c0 -76 5.66699 -134 17 -174c18.667 -65.333 53 -98 103 -98zM429 809.003l-196 -86l-28 47l185 106z" />
    <glyph glyph-name="Ocircumflex" unicode="&#xd4;" 
d="M503 337c0 -94 -10.001 -167.998 -30.001 -221.998c-31.333 -84 -85.666 -126 -162.999 -126c-57.333 0 -101.666 21 -132.999 63c-24.667 33.333 -41.667 81.666 -51 144.999c-6 41.333 -9 94 -9 158c0 94 10 168.333 30 223c30.667 84 85 126 163 126
c56.667 0 100.667 -21.667 132 -65c25.333 -34.667 42.666 -83.667 51.999 -147c6 -40.667 9 -92.334 9 -155.001zM309.999 57.002c49.333 0 83.334 31.001 102.001 93.001c11.333 38 17 89.333 17 154v33.5c0 11.667 0.333008 24.167 1 37.5
c0 75.333 -6 132.666 -18 171.999c-18.667 60 -52.334 90 -101.001 90c-50 0 -84.667 -34 -104 -102c-11.333 -40 -17 -94.333 -17 -163v-43c0 -76 5.66699 -134 17 -174c18.667 -65.333 53 -98 103 -98zM178 724.003l-26 39l158 107l158 -107l-25 -39l-133 64z" />
    <glyph glyph-name="Otilde" unicode="&#xd5;" 
d="M503 337c0 -94 -10.001 -167.998 -30.001 -221.998c-31.333 -84 -85.666 -126 -162.999 -126c-57.333 0 -101.666 21 -132.999 63c-24.667 33.333 -41.667 81.666 -51 144.999c-6 41.333 -9 94 -9 158c0 94 10 168.333 30 223c30.667 84 85 126 163 126
c56.667 0 100.667 -21.667 132 -65c25.333 -34.667 42.666 -83.667 51.999 -147c6 -40.667 9 -92.334 9 -155.001zM309.999 57.002c49.333 0 83.334 31.001 102.001 93.001c11.333 38 17 89.333 17 154v33.5c0 11.667 0.333008 24.167 1 37.5
c0 75.333 -6 132.666 -18 171.999c-18.667 60 -52.334 90 -101.001 90c-50 0 -84.667 -34 -104 -102c-11.333 -40 -17 -94.333 -17 -163v-43c0 -76 5.66699 -134 17 -174c18.667 -65.333 53 -98 103 -98zM471 843.003c-8.66699 -34.667 -18.002 -59.333 -28.002 -74
c-16 -24.667 -38 -37 -66 -37c-20 0 -43.667 10 -71 30s-45.666 30 -54.999 30c-12 0 -22.667 -8 -32 -24c-4 -6.66699 -9.66699 -20.334 -17 -41.001l-53 21c10.667 28 18.667 47 24 57c18.667 34 45.667 51 81 51c16.667 0 38.334 -10.167 65.001 -30.5s45 -30.5 55 -30.5
c12 0 21.667 8 29 24c6.66699 20.667 11 34.334 13 41.001z" />
    <glyph glyph-name="Odieresis" unicode="&#xd6;" 
d="M503 337c0 -94 -10.001 -167.998 -30.001 -221.998c-31.333 -84 -85.666 -126 -162.999 -126c-57.333 0 -101.666 21 -132.999 63c-24.667 33.333 -41.667 81.666 -51 144.999c-6 41.333 -9 94 -9 158c0 94 10 168.333 30 223c30.667 84 85 126 163 126
c56.667 0 100.667 -21.667 132 -65c25.333 -34.667 42.666 -83.667 51.999 -147c6 -40.667 9 -92.334 9 -155.001zM309.999 57.002c49.333 0 83.334 31.001 102.001 93.001c11.333 38 17 89.333 17 154v33.5c0 11.667 0.333008 24.167 1 37.5
c0 75.333 -6 132.666 -18 171.999c-18.667 60 -52.334 90 -101.001 90c-50 0 -84.667 -34 -104 -102c-11.333 -40 -17 -94.333 -17 -163v-43c0 -76 5.66699 -134 17 -174c18.667 -65.333 53 -98 103 -98zM265 794.003c0 -17.333 -4.33496 -32.833 -13.002 -46.5
s-21 -20.5 -37 -20.5c-16.667 0 -29.5 7.33301 -38.5 22s-13.5 30.667 -13.5 48s4.33301 32.166 13 44.499s21.334 18.5 38.001 18.5s29.334 -6.66699 38.001 -20s13 -28.666 13 -45.999zM455.998 789.003c0 -16 -4.66895 -30.499 -14.002 -43.499
s-21.666 -19.5 -36.999 -19.5c-16.667 0 -29.334 7.16699 -38.001 21.5s-13 30.5 -13 48.5c0 17.333 4.33301 32.166 13 44.499s21.334 18.5 38.001 18.5s29.334 -7.16699 38.001 -21.5s13 -30.5 13 -48.5z" />
    <glyph glyph-name="multiply" unicode="&#xd7;" 
d="M554 96l-244 245l-244 -245l-33 35l243 243l-243 245l33 34l244 -245l244 245l33 -34l-243 -245l243 -243z" />
    <glyph glyph-name="Oslash" unicode="&#xd8;" 
d="M402 588c-19.333 32.667 -47.668 49.001 -85.001 49.001c-49.333 0 -83.333 -31.667 -102 -95c-11.333 -38.667 -17 -91.334 -17 -158.001c0 -32 0.333008 -60 1 -84s2.33398 -49.333 5.00098 -76zM223.998 128.001c8.66699 -22.667 20.667 -40.332 36 -52.999
s35 -19 59 -19c50 0 84 33.333 102 100c10 37.333 15 91.333 15 162v23c0 43.333 -0.5 73.666 -1.5 90.999s-3.16699 41 -6.5 71zM150.998 -5.99707l-54.999 28l54 102c-10 33.333 -16.5 67.5 -19.5 102.5s-4.5 74.833 -4.5 119.5c0 62.667 3 113.334 9 152.001
c9.33301 61.333 26.666 108.666 51.999 141.999c31.333 42 75 63 131 63c47.333 0 87.333 -17 120 -51l33 60l56 -29l-51 -92c10.667 -26.667 19.167 -59 25.5 -97s9.5 -90.667 9.5 -158c0 -94.667 -10 -169 -30 -223c-30.667 -83.333 -85 -125 -163 -125
c-26 0 -50.333 5.83301 -73 17.5s-42.667 28.167 -60 49.5z" />
    <glyph glyph-name="Ugrave" unicode="&#xd9;" 
d="M211 695l1.00098 -506.001c0 -42 5.66699 -72.667 17 -92c15.333 -26 42.333 -39 81 -39c38 0 64.667 13 80 39c12.667 21.333 19 52 19 92v506h72v-526c0 -53.333 -15.333 -96.666 -46 -129.999s-72.334 -50 -125.001 -50c-52 0 -93.333 16.333 -124 49s-46 75 -46 127
v530h71zM429.001 769.999l-28 -47l-196 86l38 67z" />
    <glyph glyph-name="Uacute" unicode="&#xda;" 
d="M211 695l1.00098 -506.001c0 -42 5.66699 -72.667 17 -92c15.333 -26 42.333 -39 81 -39c38 0 64.667 13 80 39c12.667 21.333 19 52 19 92v506h72v-526c0 -53.333 -15.333 -96.666 -46 -129.999s-72.334 -50 -125.001 -50c-52 0 -93.333 16.333 -124 49s-46 75 -46 127
v530h71zM429.001 808.999l-196 -86l-28 47l185 106z" />
    <glyph glyph-name="Ucircumflex" unicode="&#xdb;" 
d="M211 695l1.00098 -506.001c0 -42 5.66699 -72.667 17 -92c15.333 -26 42.333 -39 81 -39c38 0 64.667 13 80 39c12.667 21.333 19 52 19 92v506h72v-526c0 -53.333 -15.333 -96.666 -46 -129.999s-72.334 -50 -125.001 -50c-52 0 -93.333 16.333 -124 49s-46 75 -46 127
v530h71zM178.001 723.999l-26 39l158 107l158 -107l-25 -39l-133 64z" />
    <glyph glyph-name="Udieresis" unicode="&#xdc;" 
d="M211 695l1.00098 -506.001c0 -42 5.66699 -72.667 17 -92c15.333 -26 42.333 -39 81 -39c38 0 64.667 13 80 39c12.667 21.333 19 52 19 92v506h72v-526c0 -53.333 -15.333 -96.666 -46 -129.999s-72.334 -50 -125.001 -50c-52 0 -93.333 16.333 -124 49s-46 75 -46 127
v530h71zM265.001 793.999c0 -17.333 -4.33496 -32.833 -13.002 -46.5s-21 -20.5 -37 -20.5c-16.667 0 -29.5 7.33301 -38.5 22s-13.5 30.667 -13.5 48s4.33301 32.166 13 44.499s21.334 18.5 38.001 18.5s29.334 -6.66699 38.001 -20s13 -28.666 13 -45.999z
M455.999 788.999c0 -16 -4.66895 -30.499 -14.002 -43.499s-21.666 -19.5 -36.999 -19.5c-16.667 0 -29.334 7.16699 -38.001 21.5s-13 30.5 -13 48.5c0 17.333 4.33301 32.166 13 44.499s21.334 18.5 38.001 18.5s29.334 -7.16699 38.001 -21.5s13 -30.5 13 -48.5z" />
    <glyph glyph-name="Yacute" unicode="&#xdd;" 
d="M459 709l66 -27.999c-8.66699 -20 -29.334 -63.333 -62.001 -130c-30 -62 -53 -111 -69 -147c-24 -54.667 -40.333 -98.334 -49 -131.001c-0.666992 -0.666992 -1 -11 -1 -31v-52v-107c0 -32 0.333008 -60 1 -84l-71 -1v192v68c0 4 -0.333008 9 -1 15
c-11.333 43.333 -38.666 111.333 -81.999 204l-96 205l66 27l149 -352zM429 809.001l-196 -86l-28 47l185 106z" />
    <glyph glyph-name="Thorn" unicode="&#xde;" 
d="M237 -1h-70.999v696h71l1 -154c113.333 0 187.666 -16 222.999 -48c32 -28.667 48 -74.667 48 -138c0 -88 -25.667 -145.667 -77 -173c-34.667 -18.667 -99.667 -28 -195 -28v-155zM237.001 218l96 0.000976562c36 0 62.667 14.667 80 44c14 23.333 21 54.666 21 93.999
c0 80 -39.333 120 -118 120h-79v-258z" />
    <glyph glyph-name="germandbls" unicode="&#xdf;" 
d="M285 321c21.333 2 37.999 11.667 49.999 29s18 37.666 18 60.999s-5.16699 41.333 -15.5 54s-27.166 19 -50.499 19c-28 0 -46.667 -9.66699 -56 -29c-6.66699 -14 -10 -36.667 -10 -68v-388h-72v437c0 34.667 16 63.334 48 86.001c28.667 20 61.334 30 98.001 30
c39.333 0 71.166 -12.5 95.499 -37.5s36.5 -57.167 36.5 -96.5c0 -23.333 -4.66699 -45.333 -14 -66s-23 -36.667 -41 -48c30 -7.33301 54 -25.5 72 -54.5s27 -59.833 27 -92.5c0 -44.667 -12.5 -82.167 -37.5 -112.5s-59.5 -45.5 -103.5 -45.5h-65l1 64
c58 0 94.167 6.83301 108.5 20.5s21.5 37.167 21.5 70.5c0 35.333 -9.5 61.333 -28.5 78s-46.5 25 -82.5 25v64z" />
    <glyph glyph-name="agrave" unicode="&#xe0;" 
d="M215 147l-51 -162l-70 26l171 532h90l171 -532l-71 -26l-49 162h-191zM310 457l-75 -246h150zM429 618l-28 -47l-196 86l38 67z" />
    <glyph glyph-name="aacute" unicode="&#xe1;" 
d="M215 147l-51 -162l-70 26l171 532h90l171 -532l-71 -26l-49 162h-191zM310 457l-75 -246h150zM429 657l-196 -86l-28 47l185 106z" />
    <glyph glyph-name="acircumflex" unicode="&#xe2;" 
d="M215 147l-51 -162l-70 26l171 532h90l171 -532l-71 -26l-49 162h-191zM310 457l-75 -246h150zM178 572l-26 39l158 107l158 -107l-25 -39l-133 64z" />
    <glyph glyph-name="atilde" unicode="&#xe3;" 
d="M215 147l-51 -162l-70 26l171 532h90l171 -532l-71 -26l-49 162h-191zM310 457l-75 -246h150zM471 691c-8.66699 -34.667 -18.002 -59.333 -28.002 -74c-16 -24 -38 -36 -66 -36c-17.333 0 -35.666 6 -54.999 18c-43.333 27.333 -67 41 -71 41c-12 0 -22.667 -8 -32 -24
c-4 -6.66699 -9.66699 -20.334 -17 -41.001l-53 21c10.667 28 18.667 47 24 57c18.667 34 45.667 51 81 51c16.667 0 38.334 -10.167 65.001 -30.5s45 -30.5 55 -30.5c12 0 21.667 8 29 24c6.66699 20.667 11 34.334 13 41.001z" />
    <glyph glyph-name="adieresis" unicode="&#xe4;" 
d="M215 147l-51 -162l-70 26l171 532h90l171 -532l-71 -26l-49 162h-191zM310 457l-75 -246h150zM265 642c0 -17.333 -4.33496 -32.833 -13.002 -46.5s-21 -20.5 -37 -20.5c-16.667 0 -29.5 7.33301 -38.5 22s-13.5 30.667 -13.5 48s4.33301 32.166 13 44.499
s21.334 18.5 38.001 18.5s29.334 -6.66699 38.001 -20s13 -28.666 13 -45.999zM455.998 638c0 -16 -4.66895 -30.667 -14.002 -44s-21.666 -20 -36.999 -20c-16.667 0 -29.334 7.16699 -38.001 21.5s-13 30.5 -13 48.5c0 17.333 4.33301 32.333 13 45s21.334 19 38.001 19
s29.334 -7.16699 38.001 -21.5s13 -30.5 13 -48.5z" />
    <glyph glyph-name="aring" unicode="&#xe5;" 
d="M215 147l-51 -162l-70 26l171 532h90l171 -532l-71 -26l-49 162h-191zM310 457l-75 -246h150zM401 619c0 -25.333 -9.00098 -47.001 -27.001 -65.001s-39.333 -27 -64 -27s-46 9 -64 27s-27 39.333 -27 64c0 25.333 8.83301 46.833 26.5 64.5s38.834 26.5 63.501 26.5
c25.333 0 47 -8.66699 65 -26s27 -38.666 27 -63.999zM261.999 614.999c0 -12.667 4.99902 -23.334 14.999 -32.001s22 -13 36 -13c12.667 0 23.334 5 32.001 15s13 21.667 13 35c0 12.667 -5.16699 23.334 -15.5 32.001s-21.833 13 -34.5 13c-13.333 0 -24.333 -5 -33 -15
s-13 -21.667 -13 -35z" />
    <glyph glyph-name="ae" unicode="&#xe6;" 
d="M300 478h-42l-78 -267h120v267zM300 147h-141l-49 -162l-71 26l171 532h346v-65h-185v-160h150v-64h-150v-191h185v-64h-256v148z" />
    <glyph glyph-name="ccedilla" unicode="&#xe7;" 
d="M505 104c-22 -36.667 -46.332 -64.332 -72.999 -82.999c-31.333 -21.333 -67 -32 -107 -32c-73.333 0 -128.333 31.333 -165 94c-29.333 50.667 -44 115.667 -44 195c0 72.667 15 134 45 184c36 60 88.333 90 157 90c40 0 74.167 -10 102.5 -30s51.833 -49 70.5 -87
l-65 -33c-12 24 -26 43 -42 57c-20 17.333 -41.667 26 -65 26c-47.333 0 -82 -25.333 -104 -76c-16 -36.667 -24 -82.667 -24 -138c0 -57.333 7.33301 -103.333 22 -138c21.333 -50 56.666 -75 105.999 -75c28 0 53 8.66699 75 26c14 11.333 31.667 31.666 53 60.999z
M341.001 -42.998c23.333 0 43.001 -6.66895 59.001 -20.002s24 -31.666 24 -54.999c0 -24 -10.5 -43.333 -31.5 -58s-44.167 -22 -69.5 -22c-14.667 0 -32.334 3.33301 -53.001 10c-10 3.33301 -27 10 -51 20l22 55c14.667 -6.66699 28.167 -12 40.5 -16s24.5 -6 36.5 -6
c11.333 0 19.5 1.83301 24.5 5.5s7.5 8.83398 7.5 15.501c0 16 -13.5 25.333 -40.5 28s-43.167 4 -48.5 4l35 97h64z" />
    <glyph glyph-name="egrave" unicode="&#xe8;" 
d="M161 543h339v-65h-268v-160h221v-64h-221v-191h268v-64h-339v544zM429 618l-28 -47l-196 86l38 67z" />
    <glyph glyph-name="eacute" unicode="&#xe9;" 
d="M161 543h339v-65h-268v-160h221v-64h-221v-191h268v-64h-339v544zM429 657l-196 -86l-28 47l185 106z" />
    <glyph glyph-name="ecircumflex" unicode="&#xea;" 
d="M161 543h339v-65h-268v-160h221v-64h-221v-191h268v-64h-339v544zM178 572l-26 39l158 107l158 -107l-25 -39l-133 64z" />
    <glyph glyph-name="edieresis" unicode="&#xeb;" 
d="M161 543h339v-65h-268v-160h221v-64h-221v-191h268v-64h-339v544zM265 642c0 -17.333 -4.33496 -32.833 -13.002 -46.5s-21 -20.5 -37 -20.5c-16.667 0 -29.5 7.33301 -38.5 22s-13.5 30.667 -13.5 48s4.33301 32.166 13 44.499s21.334 18.5 38.001 18.5
s29.334 -6.66699 38.001 -20s13 -28.666 13 -45.999zM455.998 638c0 -16 -4.66895 -30.667 -14.002 -44s-21.666 -20 -36.999 -20c-16.667 0 -29.334 7.16699 -38.001 21.5s-13 30.5 -13 48.5c0 17.333 4.33301 32.333 13 45s21.334 19 38.001 19
s29.334 -7.16699 38.001 -21.5s13 -30.5 13 -48.5z" />
    <glyph glyph-name="igrave" unicode="&#xec;" 
d="M198 63h76v415h-76v65h224v-65h-77v-415h77v-64h-224v64zM429 618l-28 -47l-196 86l38 67z" />
    <glyph glyph-name="iacute" unicode="&#xed;" 
d="M198 63h76v415h-76v65h224v-65h-77v-415h77v-64h-224v64zM429 657l-196 -86l-28 47l185 106z" />
    <glyph glyph-name="icircumflex" unicode="&#xee;" 
d="M198 63h76v415h-76v65h224v-65h-77v-415h77v-64h-224v64zM178 572l-26 39l158 107l158 -107l-25 -39l-133 64z" />
    <glyph glyph-name="idieresis" unicode="&#xef;" 
d="M198 63h76v415h-76v65h224v-65h-77v-415h77v-64h-224v64zM265 642c0 -17.333 -4.33496 -32.833 -13.002 -46.5s-21 -20.5 -37 -20.5c-16.667 0 -29.5 7.33301 -38.5 22s-13.5 30.667 -13.5 48s4.33301 32.166 13 44.499s21.334 18.5 38.001 18.5
s29.334 -6.66699 38.001 -20s13 -28.666 13 -45.999zM455.998 638c0 -16 -4.66895 -30.667 -14.002 -44s-21.666 -20 -36.999 -20c-16.667 0 -29.334 7.16699 -38.001 21.5s-13 30.5 -13 48.5c0 17.333 4.33301 32.333 13 45s21.334 19 38.001 19
s29.334 -7.16699 38.001 -21.5s13 -30.5 13 -48.5z" />
    <glyph glyph-name="eth" unicode="&#xf0;" 
d="M177 478h-56v65h182c87.333 0 148 -24.667 182 -74c28 -40.667 42 -106.667 42 -198c0 -92.667 -13.667 -159 -41 -199c-33.333 -48.667 -94.333 -73 -183 -73h-182v64h56v175h-56v65h56v175zM331 303v-65h-82v-175l72 1c54.667 0 91.667 22.333 111 67
c13.333 30.667 20 77 20 139c0 81.333 -11.5 136.333 -34.5 165s-55.833 43 -98.5 43h-70v-175h82z" />
    <glyph glyph-name="ntilde" unicode="&#xf1;" 
d="M129 543l87 0.000976562l209 -456v13c0 18 -0.833008 42.333 -2.5 73s-2.5 49 -2.5 55v315h71v-544h-87l-209 456v-13c0 -18.667 0.833008 -43.334 2.5 -74.001s2.5 -49 2.5 -55v-314h-71v544zM471 691.001c-8.66699 -34.667 -18.002 -59.333 -28.002 -74
c-16 -24 -38 -36 -66 -36c-17.333 0 -35.666 6 -54.999 18c-43.333 27.333 -67 41 -71 41c-12 0 -22.667 -8 -32 -24c-4 -6.66699 -9.66699 -20.334 -17 -41.001l-53 21c10.667 28 18.667 47 24 57c18.667 34 45.667 51 81 51c16.667 0 38.334 -10.167 65.001 -30.5
s45 -30.5 55 -30.5c12 0 21.667 8 29 24c6.66699 20.667 11 34.334 13 41.001z" />
    <glyph glyph-name="ograve" unicode="&#xf2;" 
d="M503 270c0 -77.333 -12.666 -139.665 -37.999 -186.998c-32.667 -62 -84.334 -93 -155.001 -93c-68 0 -119 31.333 -153 94c-26.667 49.333 -40 111.666 -40 186.999s13 137.666 39 186.999c33.333 63.333 85 95 155 95c68 0 118.667 -31.667 152 -95
c26.667 -50 40 -112.667 40 -188zM191.001 271.001c0 -54.667 6.66699 -99.666 20 -134.999c19.333 -51.333 52 -77 98 -77s78.667 25.667 98 77c13.333 35.333 20 80.666 20 135.999c0 56.667 -6.33301 102 -19 136c-19.333 51.333 -52.333 77 -99 77
s-79.667 -25.667 -99 -77c-12.667 -34 -19 -79.667 -19 -137zM428.001 619.002l-28 -47l-196 86l38 67z" />
    <glyph glyph-name="oacute" unicode="&#xf3;" 
d="M503 270c0 -77.333 -12.666 -139.665 -37.999 -186.998c-32.667 -62 -84.334 -93 -155.001 -93c-68 0 -119 31.333 -153 94c-26.667 49.333 -40 111.666 -40 186.999s13 137.666 39 186.999c33.333 63.333 85 95 155 95c68 0 118.667 -31.667 152 -95
c26.667 -50 40 -112.667 40 -188zM191.001 271.001c0 -54.667 6.66699 -99.666 20 -134.999c19.333 -51.333 52 -77 98 -77s78.667 25.667 98 77c13.333 35.333 20 80.666 20 135.999c0 56.667 -6.33301 102 -19 136c-19.333 51.333 -52.333 77 -99 77
s-79.667 -25.667 -99 -77c-12.667 -34 -19 -79.667 -19 -137zM428.001 658.002l-196 -86l-28 47l185 106z" />
    <glyph glyph-name="ocircumflex" unicode="&#xf4;" 
d="M503 270c0 -77.333 -12.666 -139.665 -37.999 -186.998c-32.667 -62 -84.334 -93 -155.001 -93c-68 0 -119 31.333 -153 94c-26.667 49.333 -40 111.666 -40 186.999s13 137.666 39 186.999c33.333 63.333 85 95 155 95c68 0 118.667 -31.667 152 -95
c26.667 -50 40 -112.667 40 -188zM191.001 271.001c0 -54.667 6.66699 -99.666 20 -134.999c19.333 -51.333 52 -77 98 -77s78.667 25.667 98 77c13.333 35.333 20 80.666 20 135.999c0 56.667 -6.33301 102 -19 136c-19.333 51.333 -52.333 77 -99 77
s-79.667 -25.667 -99 -77c-12.667 -34 -19 -79.667 -19 -137zM177.001 573.002l-26 39l158 107l158 -107l-25 -39l-133 64z" />
    <glyph glyph-name="otilde" unicode="&#xf5;" 
d="M503 270c0 -77.333 -12.666 -139.665 -37.999 -186.998c-32.667 -62 -84.334 -93 -155.001 -93c-68 0 -119 31.333 -153 94c-26.667 49.333 -40 111.666 -40 186.999s13 137.666 39 186.999c33.333 63.333 85 95 155 95c68 0 118.667 -31.667 152 -95
c26.667 -50 40 -112.667 40 -188zM191.001 271.001c0 -54.667 6.66699 -99.666 20 -134.999c19.333 -51.333 52 -77 98 -77s78.667 25.667 98 77c13.333 35.333 20 80.666 20 135.999c0 56.667 -6.33301 102 -19 136c-19.333 51.333 -52.333 77 -99 77
s-79.667 -25.667 -99 -77c-12.667 -34 -19 -79.667 -19 -137zM470.001 692.002c-8.66699 -34.667 -18.002 -59.333 -28.002 -74c-16 -24 -38 -36 -66 -36c-17.333 0 -35.666 6 -54.999 18c-43.333 27.333 -67 41 -71 41c-12 0 -22.667 -8 -32 -24
c-4 -6.66699 -9.66699 -20.334 -17 -41.001l-53 21c10.667 28 18.667 47 24 57c18.667 34 45.667 51 81 51c16.667 0 38.334 -10.167 65.001 -30.5s45 -30.5 55 -30.5c12 0 21.667 8 29 24c6.66699 20.667 11 34.334 13 41.001z" />
    <glyph glyph-name="odieresis" unicode="&#xf6;" 
d="M503 270c0 -77.333 -12.666 -139.665 -37.999 -186.998c-32.667 -62 -84.334 -93 -155.001 -93c-68 0 -119 31.333 -153 94c-26.667 49.333 -40 111.666 -40 186.999s13 137.666 39 186.999c33.333 63.333 85 95 155 95c68 0 118.667 -31.667 152 -95
c26.667 -50 40 -112.667 40 -188zM191.001 271.001c0 -54.667 6.66699 -99.666 20 -134.999c19.333 -51.333 52 -77 98 -77s78.667 25.667 98 77c13.333 35.333 20 80.666 20 135.999c0 56.667 -6.33301 102 -19 136c-19.333 51.333 -52.333 77 -99 77
s-79.667 -25.667 -99 -77c-12.667 -34 -19 -79.667 -19 -137zM264.001 643.002c0 -17.333 -4.33496 -32.833 -13.002 -46.5s-21 -20.5 -37 -20.5c-16.667 0 -29.5 7.33301 -38.5 22s-13.5 30.667 -13.5 48s4.33301 32.166 13 44.499s21.334 18.5 38.001 18.5
s29.334 -6.66699 38.001 -20s13 -28.666 13 -45.999zM454.999 639.002c0 -16 -4.66895 -30.667 -14.002 -44s-21.666 -20 -36.999 -20c-16.667 0 -29.334 7.16699 -38.001 21.5s-13 30.5 -13 48.5c0 17.333 4.33301 32.333 13 45s21.334 19 38.001 19
s29.334 -7.16699 38.001 -21.5s13 -30.5 13 -48.5z" />
    <glyph glyph-name="divide" unicode="&#xf7;" 
d="M587 350h-554v48h554v-48zM308 167c-12 0 -22.3311 4.66699 -30.998 14s-13 20 -13 32c0 13.333 4.33301 24.333 13 33s20 13 34 13c13.333 0 24.166 -4.5 32.499 -13.5s12.5 -20.5 12.5 -34.5c0 -12.667 -4.83301 -23.167 -14.5 -31.5s-20.834 -12.5 -33.501 -12.5z
M307.002 491c-12 0 -22.3311 4.66797 -30.998 14.001s-13 19.666 -13 30.999c0 13.333 4.33301 24.5 13 33.5s20 13.5 34 13.5c13.333 0 24.166 -4.5 32.499 -13.5s12.5 -20.5 12.5 -34.5c0 -12.667 -4.83301 -23.167 -14.5 -31.5s-20.834 -12.5 -33.501 -12.5z" />
    <glyph glyph-name="oslash" unicode="&#xf8;" 
d="M376 459c-16.667 16.667 -38.667 25.001 -66 25.001c-46.667 0 -79.667 -25.667 -99 -77c-12.667 -34 -19 -79.333 -19 -136c0 -44.667 5 -85.334 15 -122.001zM241 84.001c20.667 -17.333 43.333 -25.998 68 -25.998c46 0 78.667 25.667 98 77
c13.333 35.333 20 80.666 20 135.999c0 24 -1.16699 46.167 -3.5 66.5s-6.5 40.166 -12.5 59.499zM429.999 563.003l53 -30.001l-30 -58c18 -27.333 30.667 -58.166 38 -92.499s11 -70.833 11 -109.5c0 -74 -13.333 -136 -40 -186c-34 -63.333 -85 -95 -153 -95
c-38 0 -71.667 10.667 -101 32l-22 -40l-55 29l33 59c-18 26.667 -30.333 56.834 -37 90.501s-10 70.167 -10 109.5c0 75.333 13 137.666 39 186.999c33.333 63.333 84.333 95 153 95c36.667 0 69.667 -10 99 -30z" />
    <glyph glyph-name="ugrave" unicode="&#xf9;" 
d="M211 543l1 -370.001c0 -38.667 5.66699 -66.667 17 -84c14 -21.333 39 -32 75 -32c40 0 67.5 9.16699 82.5 27.5s22.5 47.833 22.5 88.5v370h72v-403c0 -47.333 -17 -84.666 -51 -111.999c-31.333 -25.333 -71.333 -38 -120 -38c-50.667 0 -91 12.667 -121 38
c-32.667 27.333 -49 66 -49 116v399h71zM429 617.999l-28 -47l-196 86l38 67z" />
    <glyph glyph-name="uacute" unicode="&#xfa;" 
d="M211 543l1 -370.001c0 -38.667 5.66699 -66.667 17 -84c14 -21.333 39 -32 75 -32c40 0 67.5 9.16699 82.5 27.5s22.5 47.833 22.5 88.5v370h72v-403c0 -47.333 -17 -84.666 -51 -111.999c-31.333 -25.333 -71.333 -38 -120 -38c-50.667 0 -91 12.667 -121 38
c-32.667 27.333 -49 66 -49 116v399h71zM429 656.999l-196 -86l-28 47l185 106z" />
    <glyph glyph-name="ucircumflex" unicode="&#xfb;" 
d="M211 543l1 -370.001c0 -38.667 5.66699 -66.667 17 -84c14 -21.333 39 -32 75 -32c40 0 67.5 9.16699 82.5 27.5s22.5 47.833 22.5 88.5v370h72v-403c0 -47.333 -17 -84.666 -51 -111.999c-31.333 -25.333 -71.333 -38 -120 -38c-50.667 0 -91 12.667 -121 38
c-32.667 27.333 -49 66 -49 116v399h71zM178 571.999l-26 39l158 107l158 -107l-25 -39l-133 64z" />
    <glyph glyph-name="udieresis" unicode="&#xfc;" 
d="M211 543l1 -370.001c0 -38.667 5.66699 -66.667 17 -84c14 -21.333 39 -32 75 -32c40 0 67.5 9.16699 82.5 27.5s22.5 47.833 22.5 88.5v370h72v-403c0 -47.333 -17 -84.666 -51 -111.999c-31.333 -25.333 -71.333 -38 -120 -38c-50.667 0 -91 12.667 -121 38
c-32.667 27.333 -49 66 -49 116v399h71zM265 641.999c0 -17.333 -4.33496 -32.833 -13.002 -46.5s-21 -20.5 -37 -20.5c-16.667 0 -29.5 7.33301 -38.5 22s-13.5 30.667 -13.5 48s4.33301 32.166 13 44.499s21.334 18.5 38.001 18.5s29.334 -6.66699 38.001 -20
s13 -28.666 13 -45.999zM455.998 637.999c0 -16 -4.66895 -30.667 -14.002 -44s-21.666 -20 -36.999 -20c-16.667 0 -29.334 7.16699 -38.001 21.5s-13 30.5 -13 48.5c0 17.333 4.33301 32.333 13 45s21.334 19 38.001 19s29.334 -7.16699 38.001 -21.5s13 -30.5 13 -48.5z
" />
    <glyph glyph-name="yacute" unicode="&#xfd;" 
d="M454 557l66.999 -35l-51 -90l-81.5 -143.5c-27 -47.667 -41.5 -74.5 -43.5 -80.5v-209l-71 -1v211c-3.33301 10 -30.666 60 -81.999 150l-93 162l67 36l144 -278zM428.999 657l-196 -86l-28 47l185 106z" />
    <glyph glyph-name="thorn" unicode="&#xfe;" 
d="M237 -1h-71v544h71v-117h49c70 0 120.667 -7.33301 152 -22c48 -22.667 72 -65 72 -127c0 -76 -29 -124.667 -87 -146c-29.333 -10.667 -91.333 -16 -186 -16v-116zM332 180c32.667 0 58.167 7.33398 76.5 22.001s27.5 38 27.5 70c0 33.333 -8.83301 56.666 -26.5 69.999
s-43.5 20 -77.5 20h-95v-182h95z" />
    <glyph glyph-name="ydieresis" unicode="&#xff;" 
d="M454 557l66.999 -35l-51 -90l-81.5 -143.5c-27 -47.667 -41.5 -74.5 -43.5 -80.5v-209l-71 -1v211c-3.33301 10 -30.666 60 -81.999 150l-93 162l67 36l144 -278zM264.999 642c0 -17.333 -4.33496 -32.833 -13.002 -46.5s-21 -20.5 -37 -20.5
c-16.667 0 -29.5 7.33301 -38.5 22s-13.5 30.667 -13.5 48s4.33301 32.166 13 44.499s21.334 18.5 38.001 18.5s29.334 -6.66699 38.001 -20s13 -28.666 13 -45.999zM455.997 638c0 -16 -4.66895 -30.667 -14.002 -44s-21.666 -20 -36.999 -20
c-16.667 0 -29.334 7.16699 -38.001 21.5s-13 30.5 -13 48.5c0 17.333 4.33301 32.333 13 45s21.334 19 38.001 19s29.334 -7.16699 38.001 -21.5s13 -30.5 13 -48.5z" />
    <glyph glyph-name="dotlessi" unicode="&#x131;" 
d="M198 63h76v415h-76v65h224v-65h-77v-415h77v-64h-224v64z" />
    <glyph glyph-name="Lslash" unicode="&#x141;" 
d="M84 276v71l104 40v308h71v-282l103 40v-72l-103 -40v-278h284v-64h-355v316z" />
    <glyph glyph-name="lslash" unicode="&#x142;" 
d="M246 353l90 34v-72l-90 -34v-218h283v-64h-355v255l-90 -34v72l90 34v217h72v-190z" />
    <glyph glyph-name="OE" unicode="&#x152;" 
d="M550 695l0.000976562 -65.001h-159v-226h147v-65h-147v-276h159l1 -64c-39.333 0 -74.666 -0.666992 -105.999 -2c-110.667 -4.66699 -169.334 -7 -176.001 -7c-57.333 0 -102.333 21.667 -135 65c-26 34.667 -44 83.667 -54 147c-6.66699 42.667 -10 95.334 -10 158.001
c0 93.333 10.333 167 31 221c31.333 82 85.333 123 162 123c38.667 0 74 -0.666992 106 -2c111.333 -4.66699 171.666 -7 180.999 -7zM319.001 619.999c-7.33301 6 -15.501 10.167 -24.501 12.5s-19.5 3.5 -31.5 3.5c-49.333 0 -83.333 -32 -102 -96
c-11.333 -39.333 -17 -92 -17 -158v-71c0 -68 5.33301 -120.333 16 -157c18.667 -64.667 53.334 -97 104.001 -97c22 0 40.333 6.33301 55 19v544z" />
    <glyph glyph-name="oe" unicode="&#x153;" 
d="M561 543l-0.000976562 -65.001h-185v-160h152v-64h-152v-191h185v-64h-247c-4.66699 0 -11 -1 -19 -3c-18.667 -4.66699 -30.667 -7 -36 -7c-73.333 0 -126.666 31.667 -159.999 95c-26 49.333 -39 114.333 -39 195c0 72.667 13.667 133.334 41 182.001
c34 60.667 84.667 91 152 91c7.33301 0 18 -1.5 32 -4.5s23.333 -4.5 28 -4.5h248zM304.999 470.999c-16.667 9.33301 -33.999 14 -51.999 14c-46 0 -78.667 -26 -98 -78c-13.333 -35.333 -20 -81 -20 -137c0 -58 6 -103.333 18 -136c19.333 -51.333 52.666 -77 99.999 -77
c18 0 35.333 4.66699 52 14v400z" />
    <glyph glyph-name="Scaron" unicode="&#x160;" 
d="M409 534c-7.33301 29.333 -17.333 52.335 -30 69.002c-16.667 22 -38 33 -64 33c-31.333 0 -55 -12 -71 -36c-13.333 -20 -20 -46.333 -20 -79c0 -37.333 22.667 -71 68 -101l126 -83c46 -40.667 69 -90.667 69 -150c0 -57.333 -14.667 -104 -44 -140
c-31.333 -38.667 -74.666 -58 -129.999 -58c-58.667 0 -102.667 18.333 -132 55c-25.333 31.333 -41 77.666 -47 138.999l72 9c3.33301 -41.333 11.666 -72.333 24.999 -93c17.333 -27.333 45 -41 83 -41c34.667 0 60.667 12 78 36c15.333 21.333 23 50.333 23 87
c0 50 -22.667 91.333 -68 124l-126 80c-46 36.667 -69 83.667 -69 141c0 48 15 89.667 45 125s69 53 117 53c46.667 0 84 -15.333 112 -46c24 -26.667 41.333 -64.334 52 -113.001zM309 803.002l133 65l25 -39l-158 -107l-158 107l26 39z" />
    <glyph glyph-name="scaron" unicode="&#x161;" 
d="M198 173c6.66699 -36.667 18.3311 -64.3311 34.998 -82.998c19.333 -22 47 -33 83 -33c28.667 0 52.334 7.83301 71.001 23.5s28 37.834 28 66.501c0 37.333 -22.333 66.666 -67 87.999l-126 56c-45.333 27.333 -68 66.333 -68 117c0 43.333 15.5 78.166 46.5 104.499
s68.5 39.5 112.5 39.5s79.667 -12 107 -36s47 -58 59 -102l-68 -20c-6 28 -16.667 49.667 -32 65c-17.333 17.333 -39.666 26 -66.999 26c-24 0 -44.5 -6 -61.5 -18s-25.5 -29.667 -25.5 -53c0 -34 22.667 -61.667 68 -83l126 -56c45.333 -28.667 68 -69.667 68 -123
c0 -50.667 -15.667 -90.334 -47 -119.001s-72.666 -43 -123.999 -43s-91.833 14.167 -121.5 42.5s-49.834 68.5 -60.501 120.5zM308.997 651.003l133 65l25 -39l-158 -107l-158 107l26 39z" />
    <glyph glyph-name="Ydieresis" unicode="&#x178;" 
d="M459 709l66 -27.999c-8.66699 -20 -29.334 -63.333 -62.001 -130c-30 -62 -53 -111 -69 -147c-24 -54.667 -40.333 -98.334 -49 -131.001c-0.666992 -0.666992 -1 -11 -1 -31v-52v-107c0 -32 0.333008 -60 1 -84l-71 -1v192v68c0 4 -0.333008 9 -1 15
c-11.333 43.333 -38.666 111.333 -81.999 204l-96 205l66 27l149 -352zM265 794.001c0 -17.333 -4.33496 -32.833 -13.002 -46.5s-21 -20.5 -37 -20.5c-16.667 0 -29.5 7.33301 -38.5 22s-13.5 30.667 -13.5 48s4.33301 32.166 13 44.499s21.334 18.5 38.001 18.5
s29.334 -6.66699 38.001 -20s13 -28.666 13 -45.999zM455.998 789.001c0 -16 -4.66895 -30.499 -14.002 -43.499s-21.666 -19.5 -36.999 -19.5c-16.667 0 -29.334 7.16699 -38.001 21.5s-13 30.5 -13 48.5c0 17.333 4.33301 32.166 13 44.499s21.334 18.5 38.001 18.5
s29.334 -7.16699 38.001 -21.5s13 -30.5 13 -48.5z" />
    <glyph glyph-name="Zcaron" unicode="&#x17d;" 
d="M399 630h-263v65h370l-292 -632h300v-64h-409zM310 803l133 65l25 -39l-158 -107l-158 107l26 39z" />
    <glyph glyph-name="zcaron" unicode="&#x17e;" 
d="M388 478h-252v65h371l-281 -480h288v-64h-409zM310 651l133 65l25 -39l-158 -107l-158 107l26 39z" />
    <glyph glyph-name="florin" unicode="&#x192;" 
d="M361 408l99 0.000976562v-65h-107l-36 -302c-6.66699 -56 -19.334 -98 -38.001 -126c-24.667 -36.667 -62.667 -55 -114 -55h-54v65c54 0 88.333 7.33301 103 22s25.334 49 32.001 103l35 293h-111v65h118c12 105.333 21.667 168.666 29 189.999
c24 70.667 70 106 138 106h54l1 -64c-80 0 -125.333 -33.333 -136 -100c-4.66699 -54.667 -9 -98.667 -13 -132z" />
    <glyph glyph-name="circumflex" unicode="&#x2c6;" 
d="M178 572l-26 39l158 107l158 -107l-25 -39l-133 64z" />
    <glyph glyph-name="caron" unicode="&#x2c7;" 
d="M310 651l133 65l25 -39l-158 -107l-158 107l26 39z" />
    <glyph glyph-name="breve" unicode="&#x2d8;" 
d="M469 710c0 -43.333 -14.166 -75.833 -42.499 -97.5s-65.166 -32.5 -110.499 -32.5c-50.667 0 -89.334 8.66699 -116.001 26c-32.667 21.333 -49 56 -49 104h65c0 -26.667 9.33301 -46.667 28 -60c16 -11.333 38 -17 66 -17c29.333 0 51.666 5.33301 66.999 16
c18 12.667 27 33 27 61h65z" />
    <glyph glyph-name="dotaccent" unicode="&#x2d9;" 
d="M361 639c0 -16 -4.66895 -30.667 -14.002 -44s-21.666 -20 -36.999 -20c-16.667 0 -29.334 6.66699 -38.001 20s-13 29 -13 47c0 17.333 4.33301 32.833 13 46.5s21.334 20.5 38.001 20.5s29.334 -7.16699 38.001 -21.5s13 -30.5 13 -48.5z" />
    <glyph glyph-name="ring" unicode="&#x2da;" 
d="M401 619c0 -25.333 -9.00098 -47.001 -27.001 -65.001s-39.333 -27 -64 -27s-46 9 -64 27s-27 39.333 -27 64c0 25.333 8.83301 46.833 26.5 64.5s38.834 26.5 63.501 26.5c25.333 0 47 -8.66699 65 -26s27 -38.666 27 -63.999zM261.999 614.999
c0 -12.667 4.99902 -23.334 14.999 -32.001s22 -13 36 -13c12.667 0 23.334 5 32.001 15s13 21.667 13 35c0 12.667 -5.16699 23.334 -15.5 32.001s-21.833 13 -34.5 13c-13.333 0 -24.333 -5 -33 -15s-13 -21.667 -13 -35z" />
    <glyph glyph-name="ogonek" unicode="&#x2db;" 
d="M374 -162c-18 -6.66699 -35.834 -12.166 -53.501 -16.499s-35.167 -6.5 -52.5 -6.5c-33.333 0 -60.666 7.66699 -81.999 23c-25.333 18 -38 43 -38 75c0 21.333 6 40.5 18 57.5s28.333 31.167 49 42.5l23 12h105c-51.333 -32.667 -81.333 -53 -90 -61
c-20 -18.667 -30 -35.334 -30 -50.001c0 -14 4.5 -24.167 13.5 -30.5s20.833 -9.5 35.5 -9.5c34 0 68 9.33301 102 28v-64z" />
    <glyph glyph-name="tilde" unicode="&#x2dc;" 
d="M471 691c-8.66699 -34.667 -18.002 -59.333 -28.002 -74c-16 -24 -38 -36 -66 -36c-17.333 0 -35.666 6 -54.999 18c-43.333 27.333 -67 41 -71 41c-12 0 -22.667 -8 -32 -24c-4 -6.66699 -9.66699 -20.334 -17 -41.001l-53 21c10.667 28 18.667 47 24 57
c18.667 34 45.667 51 81 51c16.667 0 38.334 -10.167 65.001 -30.5s45 -30.5 55 -30.5c12 0 21.667 8 29 24c6.66699 20.667 11 34.334 13 41.001z" />
    <glyph glyph-name="endash" unicode="&#x2013;" 
d="M79 305h462v-68h-462v68z" />
    <glyph glyph-name="emdash" unicode="&#x2014;" 
d="M-2 305h624v-68h-624v68z" />
    <glyph glyph-name="quoteleft" unicode="&#x2018;" 
d="M222 487l-0.000976562 46.999c0 35.333 11.333 68.666 34 99.999c20.667 28.667 48 52 82 70l25 -58c-17.333 -11.333 -29.166 -26.666 -35.499 -45.999s-9.5 -42 -9.5 -68v-23c0 -7.33301 0.333008 -14.666 1 -21.999h-97z" />
    <glyph glyph-name="quoteright" unicode="&#x2019;" 
d="M370 695l1.00195 -48.001c0 -35.333 -11.667 -68.666 -35 -99.999c-20.667 -28.667 -48.334 -52 -83.001 -70l-24 59c17.333 11.333 29.666 28 36.999 50c5.33301 16.667 8 38 8 64c0 7.33301 -0.166992 14.833 -0.5 22.5s-0.5 15.167 -0.5 22.5h97z" />
    <glyph glyph-name="quotesinglbase" unicode="&#x201a;" 
d="M370 155l0.000976562 -48c0 -34.667 -11.667 -68 -35 -100c-20.667 -28.667 -48 -52 -82 -70l-24 59c17.333 11.333 29.666 28 36.999 50c5.33301 16.667 8 38 8 64c0 7.33301 -0.166992 14.833 -0.5 22.5s-0.5 15.167 -0.5 22.5h97z" />
    <glyph glyph-name="quotedblleft" unicode="&#x201c;" 
d="M339 487l-0.000976562 47.998c0 34 11.333 66.667 34 98s50.334 55 83.001 71l24 -59c-18 -11.333 -30 -26.166 -36 -44.499s-9 -40.166 -9 -65.499v-25c0 -8 0.333008 -15.667 1 -23h-97zM145.999 486.998l-0.000976562 48c0 34 11.333 66.667 34 98
s50.334 55 83.001 71l24 -59c-17.333 -10.667 -29 -25.167 -35 -43.5s-9 -39.833 -9 -64.5v-25.5c0 -8.33301 0.333008 -16.5 1 -24.5h-98z" />
    <glyph glyph-name="quotedblright" unicode="&#x201d;" 
d="M281 695l-0.000976562 -48c0 -35.333 -11.167 -68 -33.5 -98s-50.166 -54 -83.499 -72l-24 59c17.333 11.333 29 26.333 35 45s9 40.667 9 66c0 8 -0.166992 16 -0.5 24s-0.5 16 -0.5 24h98zM473.999 695v-48c0 -35.333 -11.167 -68 -33.5 -98s-50.166 -54 -83.499 -72
l-25 59c17.333 11.333 29.666 28 36.999 50c5.33301 16.667 8 38 8 64c0 7.33301 -0.166992 14.833 -0.5 22.5s-0.5 15.167 -0.5 22.5h98z" />
    <glyph glyph-name="quotedblbase" unicode="&#x201e;" 
d="M281 155v-48c0 -34.667 -11.667 -68 -35 -100c-20.667 -28.667 -48 -52 -82 -70l-24 59c17.333 11.333 29 26.333 35 45s9 40.667 9 66c0 8 -0.166992 16 -0.5 24s-0.5 16 -0.5 24h98zM474 155l0.000976562 -48c0 -34.667 -11.667 -68 -35 -100
c-20.667 -28.667 -48 -52 -82 -70l-25 59c17.333 11.333 29.666 28 36.999 50c5.33301 16.667 8 38 8 64c0 7.33301 -0.166992 14.833 -0.5 22.5s-0.5 15.167 -0.5 22.5h98z" />
    <glyph glyph-name="dagger" unicode="&#x2020;" 
d="M275 439l-123 -5.99805v78l124 -7l-11 191h91l-11 -191l124 7v-78l-123 5c0 -8 1 -20 3 -36s3 -28 3 -36c0 -38.667 -1.83301 -102.834 -5.5 -192.501s-5.5 -147.834 -5.5 -174.501h-61c0 68 -0.333008 123 -1 165c-2.66699 167.333 -4 259 -4 275z" />
    <glyph glyph-name="daggerdbl" unicode="&#x2021;" 
d="M149 449v77l124 -6l-7 175h89l-7 -175l124 6v-77l-126 6v-217l126 6v-78l-124 8l7 -175h-89l7 175l-124 -8v78l126 -6v217z" />
    <glyph glyph-name="bullet" unicode="&#x2022;" 
d="M310 391c35.333 0 65.666 -12.6689 90.999 -38.002s38 -55.666 38 -90.999c0 -36.667 -13 -67.334 -39 -92.001s-57.667 -37 -95 -37c-34 0 -63.167 12.833 -87.5 38.5s-36.5 55.834 -36.5 90.501s12.833 64.834 38.5 90.501s55.834 38.5 90.501 38.5z" />
    <glyph glyph-name="ellipsis" unicode="&#x2026;" 
d="M54 155h97v-156h-97v156zM261 155h98v-156h-98v156zM469 155h97v-156h-97v156z" />
    <glyph glyph-name="perthousand" unicode="&#x2030;" 
d="M285 -10c-33.333 0 -58.833 13.167 -76.5 39.5s-26.5 56.833 -26.5 91.5c0 34 8.33301 63.333 25 88c19.333 28.667 45.333 43 78 43c32 0 57.667 -14.333 77 -43c17.333 -25.333 26 -54.333 26 -87c0 -36 -8 -66 -24 -90c-18.667 -28 -45 -42 -79 -42zM285 198
c-17.333 0 -29.166 -8.33203 -35.499 -24.999s-9.5 -35.334 -9.5 -56.001c0 -18 3.5 -34.667 10.5 -50s18.5 -23 34.5 -23c17.333 0 29.666 9 36.999 27c5.33301 13.333 8 30 8 50c0 20.667 -2.33301 37 -7 49c-7.33301 18.667 -20 28 -38 28zM511 -9.99902
c-34 0 -60.333 13.667 -79 41c-16 24 -24 54 -24 90c0 34 8.33301 63.333 25 88c19.333 28.667 45.333 43 78 43c32 0 57.667 -14.333 77 -43c17.333 -25.333 26 -54.333 26 -87c0 -36 -8 -66 -24 -90c-18.667 -28 -45 -42 -79 -42zM511 197.001
c-13.333 0 -23.665 -5.99902 -30.998 -17.999c-9.33301 -14.667 -14 -35.334 -14 -62.001c0 -20 3.16699 -37.333 9.5 -52s18.166 -22 35.499 -22s29.666 9 36.999 27c5.33301 13.333 8 30 8 50c0 20.667 -2.33301 37 -7 49c-7.33301 18.667 -20 28 -38 28zM409.001 680.002
l-349.002 -693l-57 35l303 601c-13.333 -4.66699 -28 -7 -44 -7c-8 0 -15.833 1 -23.5 3s-13.834 3.66699 -18.501 5c5.33301 -20 8 -39.667 8 -59c0 -32.667 -8.66699 -61 -26 -85c-19.333 -27.333 -44.666 -41 -75.999 -41c-34 0 -60.333 15 -79 45
c-16 25.333 -24 56 -24 92c0 32.667 8.66699 61 26 85c20 27.333 45.667 41 77 41c14.667 0 43 -7 85 -21c22 -7.33301 39.667 -11 53 -11c20.667 0 40.334 2.5 59.001 7.5s35.334 13.167 50.001 24.5zM124.999 648.002c-16.667 0 -28.166 -8.33203 -34.499 -24.999
s-9.5 -35.334 -9.5 -56.001c0 -19.333 2.66699 -35 8 -47c8 -18 20 -27 36 -27c13.333 0 24.166 6.66699 32.499 20s12.5 34 12.5 62c0 26 -4 44.667 -12 56s-19 17 -33 17z" />
    <glyph glyph-name="guilsinglleft" unicode="&#x2039;" 
d="M460 542l-213 -199l213 -199l-50 -54l-265 253l265 251z" />
    <glyph glyph-name="guilsinglright" unicode="&#x203a;" 
d="M475 343l-265 -253l-50 54l213 199l-213 199l50 52z" />
    <glyph glyph-name="trademark" unicode="&#x2122;" 
d="M602 409h-43v248l-100 -248h-28l-95 248l-2 -248h-44v295h72l84 -205l86 205h70v-295zM257 661h-97v-252h-44v252h-98v43h239v-43z" />
    <glyph glyph-name="fraction" unicode="&#x2215;" 
d="M534 677l-392 -692l-56 28l392 696z" />
    <glyph glyph-name="fi" unicode="&#xf001;" 
d="M560 478h-76v-415h76v-64h-223v64h76v415h-250v-160h157v-64h-157v-255h-72v544h469v-65z" />
    <glyph glyph-name="fl" unicode="&#xf002;" 
d="M446 63h166v-64h-238v479h-226v-160h158v-64h-158v-255h-71v544h369v-480z" />
    <glyph glyph-name=".null" horiz-adv-x="0" 
 />
    <glyph glyph-name="nonmarkingreturn" 
 />
  </font>
</defs>
</svg>
